Держаться вместе / Staying Together (Ли Грант / Lee Grant) [1989, США, комедия, драма, DVDRip-AVC] DVO (НТВ+) + Original Eng

Ответить на тему
Статистика раздачи
Размер:  1,4 GB   |    Зарегистрирован:  2 дня 1 час   |    Скачан:  0 раз

Полного источника не было: Никогда

   
 
Автор Сообщение

serzh ®

Пол: Не указан

Стаж: 2 месяца 7 дней

Сообщений: 173

Создавать темы 17-Май-2019 17:17

[Цитировать]

Держаться вместе / Staying Together
Страна: США
Жанр: комедия, драма
Год выпуска: 1989
Продолжительность: 01:31:49
Перевод: Профессиональный (двухголосый закадровый) НТВ+
Субтитры: нет
Оригинальная аудиодорожка: английский
Режиссер: Ли Грант / Lee Grant
В ролях: Шон Остин, Стокард Ченнинг, Дэрмот Малруни, Мелинда Диллон, Джим Хейни, Левон Хельм, Дина Манофф
Описание: По прошествии 25 лет, в течение которых отец троих детей МакДермотт вёл свой «фаст фуд» бизнес, он вдруг объявляет сыновьям, что все эти годы он ненавидел этот свой «цыплячий» бизнес и по этой причине вчера продал свой ресторан. Шокированные этим известием сыновья, которые были намерены в будущем продолжать дело отца, находятся в полной прострации, и, похоже, семья начинает распадаться.
Доп. информация: Рип найден в сети.
Русская дорожка из единственной раздачи фильма https://cybertorrent.ru/viewtopic.php?t=2086069 (спасибо balanaza). Текст читали Наталья Казначеева и Михаил Тихонов.
Сэмпл: https://yadi.sk/i/1Tq8ytdujGw2Pg
Качество видео: DVDRip-AVC
Формат видео: MKV
Видео: AVC; 847x466@716x466 (1,85:1); ~1800 Kbps; 23,976 fps
Аудио: AC3, 2.0 ch. mono, 48 kHz, 192 kbps - НТВ+
Аудио 2: AC3, 2.0 ch. stereo, 48 kHz, 192 kbps - english

MediaInfo

Общее
Уникальный идентификатор : 316658381183622068264673392686214569661 (0xEE3A2F939F0EA2947F82F2E497CA5EBD)
Полное имя : D:\Torrents\Staying Together [1989 DVDRip-AVC].mkv
Формат : Matroska
Версия формата : Version 4
Размер файла : 1,40 Гбайт
Продолжительность : 1 ч. 31 м.
Общий поток : 2185 Кбит/сек
Дата кодирования : UTC 2019-05-15 06:02:27
Программа кодирования : mkvmerge v19.0.0 ('Brave Captain') 32-bit
Библиотека кодирования : libebml v1.3.5 + libmatroska v1.4.8
Видео
Идентификатор : 1
Формат : AVC
Формат/Информация : Advanced Video Codec
Профиль формата : High@L3.1
Настройки формата : CABAC / 9 Ref Frames
Параметр CABAC формата : Да
Параметр RefFrames формата : 9 кадров
Идентификатор кодека : V_MPEG4/ISO/AVC
Продолжительность : 1 ч. 31 м.
Битрейт : 1800 Кбит/сек
Ширина : 716 пикселей
Высота : 466 пикселей
Соотношение сторон : 1,85:1
Соотношение сторон в оригинале : 1,85:1
Режим частоты кадров : Постоянный
Частота кадров : 23,976 (24000/1001) кадра/сек
Цветовое пространство : YUV
Субдискретизация насыщенности : 4:2:0
Битовая глубина : 8 бит
Тип развёртки : Прогрессивная
Бит/(Пиксели*Кадры) : 0.225
Размер потока : 1,15 Гбайт (82%)
Библиотека кодирования : x264 core 120
Настройки программы : cabac=1 / ref=9 / deblock=1:-2:-2 / analyse=0x3:0x113 / me=umh / subme=9 / psy=1 / psy_rd=1.00:0.00 / mixed_ref=1 / me_range=24 / chroma_me=1 / trellis=2 / 8x8dct=1 / cqm=0 / deadzone=21,11 / fast_pskip=1 / chroma_qp_offset=-2 / threads=12 / sliced_threads=0 / nr=0 / decimate=1 / interlaced=0 / bluray_compat=0 / constrained_intra=0 / bframes=6 / b_pyramid=2 / b_adapt=2 / b_bias=0 / direct=3 / weightb=1 / open_gop=0 / weightp=2 / keyint=240 / keyint_min=24 / scenecut=40 / intra_refresh=0 / rc_lookahead=60 / rc=2pass / mbtree=1 / bitrate=1800 / ratetol=1.0 / qcomp=0.60 / qpmin=3 / qpmax=69 / qpstep=4 / cplxblur=20.0 / qblur=0.5 / ip_ratio=1.40 / aq=1:1.00
Default : Да
Forced : Нет
Цветовой диапазон : Limited
Основные цвета : BT.601 NTSC
Характеристики трансфера : BT.709
Коэффициенты матрицы : BT.601
Аудио #1
Идентификатор : 2
Формат : AC-3
Формат/Информация : Audio Coding 3
Коммерческое название : Dolby Digital
Идентификатор кодека : A_AC3
Продолжительность : 1 ч. 31 м.
Вид битрейта : Постоянный
Битрейт : 192 Кбит/сек
Каналы : 2 канала
ChannelLayout : L R
Частота : 48,0 КГц
Частота кадров : 31,250 кадров/сек (1536 SPF)
Битовая глубина : 16 бит
Метод сжатия : С потерями
Размер потока : 126 Мбайт (9%)
Заголовок : DVO NTV+
Язык : Russian
ServiceKind/String : Complete Main
Default : Нет
Forced : Нет
Аудио #2
Идентификатор : 3
Формат : AC-3
Формат/Информация : Audio Coding 3
Коммерческое название : Dolby Digital
Идентификатор кодека : A_AC3
Продолжительность : 1 ч. 31 м.
Вид битрейта : Постоянный
Битрейт : 192 Кбит/сек
Каналы : 2 канала
ChannelLayout : L R
Частота : 48,0 КГц
Частота кадров : 31,250 кадров/сек (1536 SPF)
Битовая глубина : 16 бит
Метод сжатия : С потерями
Размер потока : 126 Мбайт (9%)
Язык : English
ServiceKind/String : Complete Main
Default : Нет
Forced : Нет
Меню
00:00:00.000 : Chapter 1
00:05:04.721 : Chapter 2
00:10:39.555 : Chapter 3
00:16:35.911 : Chapter 4
00:20:30.646 : Chapter 5
00:23:25.779 : Chapter 6
00:29:26.681 : Chapter 7
00:35:16.030 : Chapter 8
00:40:47.361 : Chapter 9
00:45:54.668 : Chapter 10
00:48:55.015 : Chapter 11
00:53:54.397 : Chapter 12
00:59:58.720 : Chapter 13
01:07:44.185 : Chapter 14
01:14:56.116 : Chapter 15
01:21:33.513 : Chapter 16

Скриншот c названием фильма

Скриншоты

[cybertorrent.ru].t2878.torrent 
Торрент: Зарегистрирован [ 2019-05-17 17:17 ] · AF43014CCA2260E6A70D0D54A6460E7549002AB8

Скачать .torrent

Скачать

15 KB

Статус: проверено
Скачан: 0 раз
Размер: 1,4 GB
terms.php
[Профиль] [ЛС]
Показать сообщения:    
Ответить на тему

Текущее время: 19-Май 19:02

Часовой пояс: UTC ± 0



Вы не можете начинать темы
Вы не можете отвечать на сообщения
Вы не можете редактировать свои сообщения
Вы не можете удалять свои сообщения
Вы не можете голосовать в опросах
Вы не можете прикреплять файлы к сообщениям
Вы можете скачивать файлы