Доктор Хэрроу / Harrow / Сезон: 2 / Серии: 1 из 10 (Тони Кравиц, Питер Сэлмон, Кейт Дэннис) [2019, США, Австралия, драма, HDTVRip] MVO (AlexFilm) + Original + Sub (Eng)

Ответить на тему
Статистика раздачи
Размер:  743 MB   |    Зарегистрирован:  1 месяц 1 день   |    Скачан:  0 раз

Полного источника не было: Никогда

   
 
Автор Сообщение

Рамфоринх ®

Пол: Не указан

Стаж: 3 месяца 7 дней

Сообщений: 277

Создавать темы 18-Май-2019 15:43

[Цитировать]

Доктор Хэрроу / Harrow Год выпуска: 2019
Страна: США, Австралия
Жанр: драма.
Продолжительность: ~00:52:00
Перевод: Профессиональный (многоголосый закадровый) AlexFilm
Режиссёр: Тони Кравиц, Питер Сэлмон, Кейт Дэннис
В ролях: Йоан Гриффит, Мирра Фолкс, Реми Хий, Робин Малкольм, Элла Ньютон, Анна Лизе Филлипс, Патрис Кокс, Мартиния О`Салливан, Пари Парандуш, Джонатан Шарп, Патрик Атчисон, Даррен Гилшенан, Мелани Хэйвард, Джанелл Бэйли, Хантер Пейдж-Лошар, Майкл Бэлк, Мелисса Бонн, Ари Бойлэнд, Николас Браун, Аарон Дэвисон, Киара Фриман
Описание: Сериал рассказывает о гениальном судмедэксперте Даниэле Хэрроу. У него непростой характер, но исключительные профессиональные качества: Даниэль не признает никаких авторитетов, искренне сочувствует тем, кто попадает к нему в лабораторию, и готов на все, чтобы выяснить истинные причины их смерти. Все это позволяет Даниэлю разгадывать самые запутанные дела, однако у него самого есть страшный секрет, который способен поставить под угрозу карьеру доктора и жизнь его семьи.

Исходник: HDTVRip 1080
Качество: HDTVRip
Формат: AVI
Видео: XviD, 720x400, 25 fps, ~ 1599 kbps
Аудио 1: 48 kHz, AC3 2 ch, ~192 kbps|AlexFilm|
Аудио 2: 48 kHz, AC3 2 ch, ~192 kbps
Субтитры: Английские
Реклама: Отсутствует
Предыдущие и альтернативные раздачи

Релиз

Работа со звуком: kogesan

MediaInfo

Format : AVI
Format/Info : Audio Video Interleave
File size : 743 MiB
Duration : 51mn 59s
Overall bit rate : 1 998 Kbps
Movie name : Доктор Харроу 2х01: Также Действительно
Director : Бёдвар (HDTVRip 400p)
Writing application : VirtualDubModRus 1.5.10.2 (build 2542/release)
Comment : 17.05.2019
Video
ID : 0
Format : MPEG-4 Visual
Format profile : Advanced Simple@L5
Format settings, BVOP : 1
Format settings, QPel : No
Format settings, GMC : No warppoints
Format settings, Matrix : Default (MPEG)
Codec ID : XVID
Codec ID/Hint : XviD
Duration : 51mn 59s
Bit rate : 1 600 Kbps
Width : 720 pixels
Height : 400 pixels
Display aspect ratio : 16:9
Frame rate : 25.000 fps
Color space : YUV
Chroma subsampling : 4:2:0
Bit depth : 8 bits
Scan type : Progressive
Compression mode : Lossy
Bits/(Pixel*Frame) : 0.222
Stream size : 595 MiB (80%)
Writing library : XviD 67
Audio #1
ID : 1
Format : AC-3
Format/Info : Audio Coding 3
Mode extension : CM (complete main)
Format settings, Endianness : Big
Codec ID : 2000
Duration : 51mn 59s
Bit rate mode : Constant
Bit rate : 192 Kbps
Channel(s) : 2 channels
Channel positions : Front: L R
Sampling rate : 48.0 KHz
Frame rate : 31.250 fps (1536 spf)
Compression mode : Lossy
Stream size : 71.4 MiB (10%)
Alignment : Split accross interleaves
Interleave, duration : 40 ms (1.00 video frame)
Interleave, preload duratio : 500 ms
Audio #2
ID : 2
Format : AC-3
Format/Info : Audio Coding 3
Mode extension : CM (complete main)
Format settings, Endianness : Big
Codec ID : 2000
Duration : 51mn 59s
Bit rate mode : Constant
Bit rate : 192 Kbps
Channel(s) : 2 channels
Channel positions : Front: L R
Sampling rate : 48.0 KHz
Frame rate : 31.250 fps (1536 spf)
Compression mode : Lossy
Stream size : 71.4 MiB (10%)
Alignment : Split accross interleaves
Interleave, duration : 40 ms (1.00 video frame)
Interleave, preload duratio : 500 ms

Скриншоты

Внимание! Раздача ведётся путём добавления новых серий

Внимание! Раздача ведётся путём добавления новых серий; при каждом добавлении создаётся новый торрент. Чтобы начать докачку новой серии,пользователям необходимо сделать следующее:
(1) остановить скачивание,
(2) удалить старый торрент у себя из клиента (старые серии удалять не надо),
(3) скачать новый торрент и запустить его у себя в клиенте вместо старого, при этом указать клиенту путь в старую папку куда и должнопроисходить скачивание новых серий.
Ваш клиент при этом должен произвести хеширование (проверку) старой папки (если не производит сам - помогите ему сделать это), и будет докачивать только те серии
которых у вас ещё нет. Старые серии при этом не удаляются, а продолжают раздаваться!
Eсли вы уже удалили старые серии, то предотвратить повторную закачку старых серий можно, отжав галочку в соответствующих местах при запуске нового торрента.
По возможности, желательно не удалять старые серии как можно дольше чтобы релизёр не столько продолжал раздавать старые серии, а смог сконцентрироваться на новых.
Релиз группы:
[cybertorrent.ru].t2905.torrent 
Торрент: Зарегистрирован [ 2019-05-18 15:44 ] · FD867D1027448D758D71D3E758B79B140DCB709B

Скачать .torrent

Скачать

15 KB

Статус: проверено
Скачан: 0 раз
Размер: 743 MB
terms.php
[Профиль] [ЛС]
Показать сообщения:    
Ответить на тему

Текущее время: 19-Июн 22:53

Часовой пояс: UTC ± 0



Вы не можете начинать темы
Вы не можете отвечать на сообщения
Вы не можете редактировать свои сообщения
Вы не можете удалять свои сообщения
Вы не можете голосовать в опросах
Вы не можете прикреплять файлы к сообщениям
Вы можете скачивать файлы