Охотники на гангстеров / Gangster Squad (Рубен Флейшер / Ruben Fleischer) [2013, США, боевик, криминал, триллер, BDRip] AVO (Юрий Немахов)

Ответить на тему
Статистика раздачи
Размер:  1,46 GB   |    Зарегистрирован:  3 месяца 7 дней   |    Скачан:  0 раз

Полного источника не было: Никогда

   
 
Автор Сообщение

cyber ®

Пол: Не указан

Стаж: 3 месяца 13 дней

Сообщений: 94

Создавать темы 18-Мар-2019 09:59

[Цитировать]

Охотники на гангстеров / Gangster Squad
Страна: США
Жанр: боевик, криминал, триллер
Год выпуска: 2013
Продолжительность: 01:52:54

Перевод: Авторский (одноголосый закадровый) Юрий Немахов
Субтитры: нет
Режиссер: Рубен Флейшер / Ruben Fleischer
В ролях: Джош Бролин, Райан Гослинг, Ник Нолти, Эмма Стоун, Энтони Маки, Джованни Рибизи, Майкл Пенья, Роберт Патрик, Шон Пенн
Описание: Действие фильма разворачивается в Лос-Анджелесе вскоре после окончания Второй Мировой войны. В это время город фактически оказался под властью криминального босса Микки Коэна, контролировавшего торговлю оружием и наркотиками. Практически все представители официальной власти в городе, как и большая часть сотрудников полиции, оказались либо подкуплены Коэном, либо запуганы им. Однако небольшая группа полицейских, возглавляемая сержантами Джоном О'Мара и Джерри Вутерсом, решается противостоять мафии и образовывает особый отряд, предназначенный специально для борьбы с незаконной деятельностью Коэна. Будучи ветеранами военных действий, участники отряда не боятся смотреть в лицо смерти, а в борьбе с вооруженными до зубов бандами Коэна сами не чураются использования радикальных методов. При этом они вовсе не являются «рыцарями без страха и упрека», имея свои слабости и интересы за рамками борьбы с преступностью. Да и мотивы, по которым эти полицейские решили посвятить свою жизнь борьбе с мафией, также различны...

Сэмпл: http://multi-up.com/1223872
Качество видео: BDRip (Исходник BDRemux 1080p)
Формат видео: AVI
Видео: XviD 73, 720x304, (2,35:1), 23,976 fps, 1400 Кбит/с, 8 бит, 0.27 bit/pixel
Аудио: Русский (АС3, 6 ch (Front: L C R, Side: L R, LFE), 48,0 KHz, 448 Kbps)

MediaInfo

Общее
Полное имя : E:\Охотники на гангстеров (боевик, криминал 2013 год).avi
Формат : AVI
Формат/Информация : Audio Video Interleave
Размер файла : 1,46 Гбайт
Продолжительность : 1 ч. 52 м.
Общий поток : 1857 Кбит/сек
Программа кодирования : VirtualDubMod 1.5.10.3 | www.virtualdub-fr.org || (build 2550/release)
Библиотека кодирования : VirtualDubMod build 2550/release
Видео
Идентификатор : 0
Формат : MPEG-4 Visual
Профиль формата : Advanced Simple@L5
Параметр BVOP формата : 2
Параметр QPel формата : Нет
Параметр GMC формата : Без точки перехода
Параметр матрицы формата : Выборочная
Идентификатор кодека : XVID
Идентификатор кодека/Подсказка : XviD
Продолжительность : 1 ч. 52 м.
Битрейт : 1400 Кбит/сек
Ширина : 720 пикселей
Высота : 304 пикселя
Соотношение сторон : 2,35:1
Частота кадров : 23,976 (23976/1000) кадра/сек
Цветовое пространство : YUV
Субдискретизация насыщенности : 4:2:0
Битовая глубина : 8 бит
Тип развёртки : Прогрессивная
Метод сжатия : С потерями
Бит/(Пиксели*Кадры) : 0.267
Размер потока : 1,10 Гбайт (75%)
Библиотека кодирования : XviD 73
Аудио
Идентификатор : 1
Формат : AC-3
Формат/Информация : Audio Coding 3
Расширение режима : CM (complete main)
Параметр Endianness формата : Big
Идентификатор кодека : 2000
Продолжительность : 1 ч. 52 м.
Вид битрейта : Постоянный
Битрейт : 448 Кбит/сек
Каналы : 6 каналов
Расположение каналов : Front: L C R, Side: L R, LFE
Частота : 48,0 КГц
Частота кадров : 31,250 кадров/сек (1536 spf)
Метод сжатия : С потерями
Размер потока : 362 Мбайт (24%)
Выравнивание : Разделение по промежуткам
Продолжительность промежутка : 42 мс. (1,00 видеокадр)
Время предзагрузки промежутка : 500 мс.

Скриншот c названием фильма

Скриншоты

[cybertorrent.ru].t291.torrent 
Торрент: Зарегистрирован [ 2019-03-18 10:04 ] · 6F694737465CC13F44D9E9F93406445EFFF3B38F

Скачать .torrent

Скачать

15 KB

Статус: проверено
Скачан: 0 раз
Размер: 1,46 GB
terms.php
[Профиль] [ЛС]
Показать сообщения:    
Ответить на тему

Текущее время: 25-Июн 22:43

Часовой пояс: UTC ± 0



Вы не можете начинать темы
Вы не можете отвечать на сообщения
Вы не можете редактировать свои сообщения
Вы не можете удалять свои сообщения
Вы не можете голосовать в опросах
Вы не можете прикреплять файлы к сообщениям
Вы можете скачивать файлы