Раз-два-три — вперёд! / En-to-tre-nu! (Барбара Топсеэ-Ротенборг / Barbara Topsøe-Rothenborg) [2016, Дания, драма, мелодрама, DVB] MVO

Ответить на тему
Статистика раздачи
Размер:  1,27 GB   |    Зарегистрирован:  2 часа 53 минуты   |    Скачан:  0 раз

Полного источника не было: Никогда

   
 
Автор Сообщение

солнышко ®

Пол: Не указан

Стаж: 2 месяца 7 дней

Сообщений: 279

Создавать темы Сегодня, в 16:11

[Цитировать]

Раз-два-три — вперёд! / En-to-tre-nu!- Страна: Дания
Жанр: драма, мелодрама
Год выпуска: 2016
Продолжительность: 01:49:35-Перевод: Профессиональный (многоголосый закадровый)
Субтитры: нет-Режиссер: Барбара Топсеэ-Ротенборг / Barbara Topsøe-Rothenborg
В ролях: Николай Грот, Клара Росагер, Лукас Лёккен, Лаура Бах, Каспер Лайснер, Расмус Хаммерих, Мартин Лауриц, Роберта Илариус Райххардт, Йенс Йорн Споттаг, Сюзанна Сторм- | Релиз: -Описание: Йеппе всего 17 лет, но он уже играет в основном составе лучшей баскетбольной команды страны. Его мечта — уехать учиться в американский университет и стать профессиональным игроком НБА. Когда в его школе появляется новая ученица — красивая и загадочная Сесилия, Йеппе влюбляется в неё с первого взгляда. Кажется, она отвечает ему взаимностью, но в её жизни явно присутствует какая-то зловещая тайна, сильно осложняющая отношения влюблённых.-Семпл: http://sendfile.su/1495025-Тип релиза: DVB (Канал "Культура")
Контейнер: MKV
Видео: 720x576 (16:9) @ 1048x576, 25.000 fps, AVC, ~1382 Kbps, 0.133 bits/pixel
Аудио: Русский, 48.0 KHz, MPEG-1 Audio layer 2, 2 ch, 192 Kbps

MediaInfo

General
ID : 1 (0x1)
Complete name : En-to-tre-nu! 2016 Kultura MVO.ts
Format : MPEG-TS
File size : 1.27 GiB
Duration : 1 h 49 min
Overall bit rate mode : Variable
Overall bit rate : 1 658 kb/s
Video
ID : 205 (0xCD)
Menu ID : 1 (0x1)
Format : AVC
Format/Info : Advanced Video Codec
Format profile : High@L3
Format settings : CABAC / 4 Ref Frames
Format settings, CABAC : Yes
Format settings, Reference frames : 4 frames
Format settings, GOP : M=4, N=28
Codec ID : 27
Duration : 1 h 49 min
Bit rate : 1 382 kb/s
Width : 720 pixels
Height : 576 pixels
Display aspect ratio : 16:9
Frame rate : 25.000 FPS
Standard : Component
Color space : YUV
Chroma subsampling : 4:2:0
Bit depth : 8 bits
Scan type : Interlaced
Scan type, store method : Separated fields
Scan order : Top Field First
Bits/(Pixel*Frame) : 0.133
Stream size : 1.06 GiB (83%)
Color range : Limited
Color primaries : BT.601 PAL
Transfer characteristics : BT.470 System B/G
Matrix coefficients : BT.470 System B/G
Audio
ID : 305 (0x131)
Menu ID : 1 (0x1)
Format : MPEG Audio
Format version : Version 1
Format profile : Layer 2
Codec ID : 3
Duration : 1 h 49 min
Bit rate mode : Constant
Bit rate : 192 kb/s
Channel(s) : 2 channels
Sampling rate : 48.0 kHz
Frame rate : 41.667 FPS (1152 SPF)
Compression mode : Lossy
Stream size : 150 MiB (12%)
Language : Russian
Text
ID : 505 (0x1F9)-888
Menu ID : 1 (0x1)
Format : Teletext Subtitle
Language : Russian
Language, more info : For hearing impaired people
Other
ID : 505 (0x1F9)-100
Menu ID : 1 (0x1)
Format : Teletext
Language : Russian

Скриншоты

[cybertorrent.ru].t2930.torrent 
Торрент: Зарегистрирован [ Сегодня, в 16:11 ] · A1C8F03B8CA2755FB6356744E0E3A14546EB0B34

Скачать .torrent

Скачать

13 KB

Статус: проверено
Скачан: 0 раз
Размер: 1,27 GB
terms.php
[Профиль] [ЛС]
Показать сообщения:    
Ответить на тему

Текущее время: 19-Май 19:05

Часовой пояс: UTC ± 0



Вы не можете начинать темы
Вы не можете отвечать на сообщения
Вы не можете редактировать свои сообщения
Вы не можете удалять свои сообщения
Вы не можете голосовать в опросах
Вы не можете прикреплять файлы к сообщениям
Вы можете скачивать файлы