Кочегар (Алексей Балабанов) [2010, драма, криминал, WEBRip]

Ответить на тему
Статистика раздачи
Размер:  745 MB   |    Зарегистрирован:  3 месяца 7 дней   |    Скачан:  0 раз

Полного источника не было: Никогда

   
 
Автор Сообщение

Rodin ®

Пол: Не указан

Стаж: 3 месяца 13 дней

Сообщений: 135

Создавать темы 18-Мар-2019 09:59

[Цитировать]

Кочегар
Год выпуска: 2010
Жанр: драма, криминал
Продолжительность: 01:23:54.479 (125862 frames)
Субтитры: нет
Режиссер: Алексей Балабанов
В ролях: Михаил Скрябин , Александр Мосин , Юрий Матвеев , Аида Тумутова , Анна Коротаева , Вячеслав Тельнов , Вячеслав Павлють , Алина Политова , Варвара Белокурова , Пётр Семак , Роман Бурёнков , Саян Монгуш , Филипп Дьячков , Валерий Рыбин , Олег Корытин , Кирилл Комлев , Александр Гаркушенко , Юлия Мен , Виктория Монгуш
Описание: Время и место действия: Санкт-Петербург, середина 90-х годов ХХ столетия, главный герой — майор в отставке, работает в кочегарке, и в свободное время на старенькой печатной машинке пишет рассказ. Однако затворника-кочегара часто посещают самые разные гости…
Качество: WEBRip
Формат: AVI
Видео кодек: XviD
Аудио кодек: МР3
Видео: 688x368 (1.87:1), 25 fps, XviD build 73 ~1103 kbps avg, 0.17 bit/pixel
Аудио: 48 kHz, MPEG Layer 3, 2 ch, ~128.00 kbps avg

Скриншоты

Медиаинфо

General
Complete name : E:\004 Мои раздачи\Кочегар 745\kochegar_745_by_bm11.avi
Format : AVI
Format/Info : Audio Video Interleave
File size : 745 MiB
Duration : 1h 23mn
Overall bit rate : 1 241 Kbps
Writing application : VirtualDubMod 1.5.10.3 | www.virtualdub-fr.org || (build 2550/release)
Writing library : VirtualDubMod build 2550/release
Video
ID : 0
Format : MPEG-4 Visual
Format profile : Advanced Simple@L5
Format settings, BVOP : 1
Format settings, QPel : No
Format settings, GMC : No warppoints
Format settings, Matrix : Custom
Codec ID : XVID
Codec ID/Hint : XviD
Duration : 1h 23mn
Bit rate : 1 104 Kbps
Width : 688 pixels
Height : 368 pixels
Display aspect ratio : 1.85:1
Frame rate : 25.000 fps
Color space : YUV
Chroma subsampling : 4:2:0
Bit depth : 8 bits
Scan type : Progressive
Compression mode : Lossy
Bits/(Pixel*Frame) : 0.174
Stream size : 662 MiB (89%)
Writing library : XviD 73
Audio
ID : 1
Format : MPEG Audio
Format version : Version 1
Format profile : Layer 3
Codec ID : 55
Codec ID/Hint : MP3
Duration : 1h 23mn
Bit rate mode : Constant
Bit rate : 128 Kbps
Channel(s) : 2 channels
Sampling rate : 48.0 KHz
Compression mode : Lossy
Stream size : 76.8 MiB (10%)
Alignment : Aligned on interleaves
Interleave, duration : 40 ms (1.00 video frame)
Interleave, preload duratio : 504 ms
Writing library : LAME3.99r
Encoding settings : -m s -V 4 -q 2 -lowpass 17 -b 128
[cybertorrent.ru].t299.torrent 
Торрент: Зарегистрирован [ 2019-03-18 10:04 ] · 0A81CECBBAB88AD1A951BD70DD893EDCE6B00B3F

Скачать .torrent

Скачать

15 KB

Статус: проверено
Скачан: 0 раз
Размер: 745 MB
terms.php
[Профиль] [ЛС]
Показать сообщения:    
Ответить на тему

Текущее время: 25-Июн 21:35

Часовой пояс: UTC ± 0



Вы не можете начинать темы
Вы не можете отвечать на сообщения
Вы не можете редактировать свои сообщения
Вы не можете удалять свои сообщения
Вы не можете голосовать в опросах
Вы не можете прикреплять файлы к сообщениям
Вы можете скачивать файлы