Трэкс / Тракс / Traxx (Джером Гари / Jerome Gary) [1988, США, комедия, боевик, VHSRip] VO (Орбита) + Original Eng

Ответить на тему
Статистика раздачи
Размер:  885 MB   |    Зарегистрирован:  5 месяцев   |    Скачан:  0 раз

Полного источника не было: Никогда

   
 
Автор Сообщение

serzh ®

Пол: Не указан

Стаж: 5 месяцев 6 дней

Сообщений: 348

Создавать темы 18-Мар-2019 09:59

[Цитировать]

Трэкс / Traxx
Страна: США
Жанр: комедия, боевик
Год выпуска: 1988
Продолжительность: 01:24:28
Перевод: Одноголосый закадровый студии "Орбита"
Субтитры: нет
Оригинальная аудиодорожка: английский
Режиссер: Джером Гари /Jerome Gary/
В ролях: Шадой Стивенс /Shadoe Stevens/, Присцилла Барнс /Priscilla Barnes/, Роберт Дави /Robert Davi/, Джон Хэнкок /John Hancock/, Роберт Миано /Robert Miano/ ...
Рецензия Михаила Иванова: Стивенс играет Тракса, супермена, который очищает техасский город Хадливилл от криминального элемента. Он любит палить из пистолета, но обожает также выпекать печенье. И при этом Траксу сопутствует удача по всем направлениям. Фильм-пародия, местами очень смешной
Доп. информация: рип из всемирной паутины; Орбиту оцифровал и подготовил karlll; начальные 2'30'' без перевода
~Сэмпл~
Качество видео: VHSRip
Формат видео: AVI
Видео: Video: 640x480 (1.33:1), 29.970 fps, XviD build 50 ~997 kbps avg, 0.11 bit/pixel
Аудио 1: 48 kHz, AC3 Dolby Digital, 2/0 (L,R) ch, ~192 kbps - Орбита
Аудио 2: 48 kHz, AC3 Dolby Digital, 2/0 (L,R) ch, ~256 kbps - Original Eng

MediaInfo

Формат : AVI
Формат/Информация : Audio Video Interleave
Размер файла : 885 Мбайт
Продолжительность : 1 ч. 24 м.
Общий поток : 1464 Кбит/сек
Название фильма : Traxx_1988
Программа кодирования : VirtualDubMod 1.5.10.3 | www.virtualdub-fr.org || (build 2550/release)
Библиотека кодирования : VirtualDubMod build 2550/release
Правообладатель : KBC
Видео
Идентификатор : 0
Формат : MPEG-4 Visual
Профиль формата : Advanced Simple@L5
Параметр BVOP формата : 2
Параметр QPel формата : Нет
Параметр GMC формата : Без точки перехода
Параметр матрицы формата : Default (H.263)
Идентификатор кодека : XVID
Идентификатор кодека/Подсказка : XviD
Продолжительность : 1 ч. 24 м.
Битрейт : 999 Кбит/сек
Ширина : 640 пикселей
Высота : 480 пикселей
Соотношение сторон : 4:3
Частота кадров : 29,970 кадров/сек
Цветовое пространство : YUV
Субдискретизация насыщенности : 4:2:0
Битовая глубина : 8 бит
Тип развёртки : Прогрессивная
Метод сжатия : С потерями
Бит/(Пиксели*Кадры) : 0.108
Размер потока : 603 Мбайт (68%)
Библиотека кодирования : XviD 1.2.1 (UTC 2008-12-04)
Аудио #1
Идентификатор : 1
Формат : AC-3
Формат/Информация : Audio Coding 3
Расширение режима : CM (complete main)
Параметр Endianness формата : Big
Идентификатор кодека : 2000
Продолжительность : 1 ч. 24 м.
Вид битрейта : Постоянный
Битрейт : 192 Кбит/сек
Каналы : 2 канала
Расположение каналов : Front: L R
Частота : 48,0 КГц
Битовая глубина : 16 бит
Метод сжатия : С потерями
Размер потока : 116 Мбайт (13%)
Выравнивание : Разделение по промежуткам
Продолжительность промежутка : 33 мс. (1,00 видеокадр)
Время предзагрузки промежутка : 500 мс.
Заголовок : Орбита
Аудио #2
Идентификатор : 2
Формат : AC-3
Формат/Информация : Audio Coding 3
Расширение режима : CM (complete main)
Параметр Endianness формата : Big
Идентификатор кодека : 2000
Продолжительность : 1 ч. 24 м.
Вид битрейта : Постоянный
Битрейт : 256 Кбит/сек
Каналы : 2 канала
Расположение каналов : Front: L R
Частота : 48,0 КГц
Битовая глубина : 16 бит
Метод сжатия : С потерями
Размер потока : 155 Мбайт (17%)
Выравнивание : Разделение по промежуткам
Продолжительность промежутка : 33 мс. (1,00 видеокадр)
Время предзагрузки промежутка : 500 мс.
Заголовок : english

Скриншоты

[cybertorrent.ru].t300.torrent 
Торрент: Зарегистрирован [ 2019-03-18 10:04 ] · 50F0FF46A76AC9A8D0293E897FB580818C686F35

Скачать .torrent

Скачать

18 KB

Статус: проверено
Скачан: 0 раз
Размер: 885 MB
terms.php
[Профиль] [ЛС]
Показать сообщения:    
Ответить на тему

Текущее время: 19-Авг 03:37

Часовой пояс: UTC ± 0



Вы не можете начинать темы
Вы не можете отвечать на сообщения
Вы не можете редактировать свои сообщения
Вы не можете удалять свои сообщения
Вы не можете голосовать в опросах
Вы не можете прикреплять файлы к сообщениям
Вы можете скачивать файлы