Золотой берег / Guldkysten / Gold Coast (Даниэл Денсик / Daniel Dencik) [2015, Дания, Швеция, Гана, драма, исторический, WEB-DLRip] VO + Sub Rus, Eng + Original Dan

Ответить на тему
Статистика раздачи
Размер:  1,75 GB   |    Зарегистрирован:  5 месяцев   |    Скачан:  0 раз

Полного источника не было: Никогда

   
 
Автор Сообщение

cyber ®

Пол: Не указан

Стаж: 5 месяцев 6 дней

Сообщений: 142

Создавать темы 18-Мар-2019 09:59

[Цитировать]

Золотой берег / Guldkysten / Gold Coast
Страна: Дания, Швеция, Гана
Жанр: драма, исторический
Год выпуска: 2015
Продолжительность: 01:49:38
Перевод: Одноголосый закадровый
Субтитры: русские (adelstein_s), английские
Оригинальная аудиодорожка: датский
Режиссер: Даниэл Денсик / Daniel Dencik
В ролях: Якоб Офтебро, Даница Чурчич, Андерс Хейнриксен, Мортен Хольст, Адам Ильд Роведер, Луисе Скоу
Описание: 1836-й год, молодой офицер Вульф — романтик и оптимист, убежденный в том, что даже тени — это дети света, впервые покидает родной Копенгаген. Вульф отплывает в тропическую Африку, к берегам датской Гвинеи, с одобренной самим королем благородной миссией — превратить золотые берега, замаранные гнусной работорговлей, в плодородные сады, цветущие во славу датского королевства. Но что-то пошло не так…
Сэмпл
Качество видео: WEB-DLRip
Формат видео: AVI
Видео: 720x304 (2.37:1), 25 fps, XviD build 73 ~1699 kbps avg, 0.31 bit/pixel
Аудио: 48 kHz, AC3 Dolby Digital, 2/0 (L,R) ch, ~192 kbps - одноголосый
Аудио: 48 kHz, AC3 Dolby Digital, 3/2 (L,C,R,l,r) + LFE ch, ~384 kbps - оригинал (отдельным файлом)
Формат субтитров: softsub (SRT)

MediaInfo

General
Complete name : H:\Guldkysten.2015.web-dlrip_[1.46]_[teko]\Guldkysten.2015.web-dlrip_[1.46].avi
Format : AVI
Format/Info : Audio Video Interleave
File size : 1.46 GiB
Duration : 1h 49mn
Overall bit rate : 1 901 Kbps
Writing application : VirtualDubMod 1.5.10.3 | www.virtualdub-fr.org || (build 2550/release)
Writing library : VirtualDubMod build 2550/release
Video
ID : 0
Format : MPEG-4 Visual
Format profile : Advanced Simple@L5
Format settings, BVOP : 2
Format settings, QPel : No
Format settings, GMC : No warppoints
Format settings, Matrix : Custom
Codec ID : XVID
Codec ID/Hint : XviD
Duration : 1h 49mn
Bit rate : 1 700 Kbps
Width : 720 pixels
Height : 304 pixels
Display aspect ratio : 2.35:1
Frame rate : 25.000 fps
Color space : YUV
Chroma subsampling : 4:2:0
Bit depth : 8 bits
Scan type : Progressive
Compression mode : Lossy
Bits/(Pixel*Frame) : 0.311
Stream size : 1.30 GiB (89%)
Writing library : XviD 73
Audio
ID : 1
Format : AC-3
Format/Info : Audio Coding 3
Mode extension : CM (complete main)
Format settings, Endianness : Big
Codec ID : 2000
Duration : 1h 49mn
Bit rate mode : Constant
Bit rate : 192 Kbps
Channel(s) : 2 channels
Channel positions : Front: L R
Sampling rate : 48.0 KHz
Frame rate : 31.250 fps (1536 spf)
Compression mode : Lossy
Stream size : 151 MiB (10%)
Alignment : Split accross interleaves
Interleave, duration : 40 ms (1.00 video frame)
Interleave, preload duratio : 500 ms
Релиз группы:
--
[cybertorrent.ru].t305.torrent 
Торрент: Зарегистрирован [ 2019-03-18 10:04 ] · E6CD47C1E7BD30F85FF25D550260CB5343782AF7

Скачать .torrent

Скачать

18 KB

Статус: проверено
Скачан: 0 раз
Размер: 1,75 GB
terms.php
[Профиль] [ЛС]
Показать сообщения:    
Ответить на тему

Текущее время: 19-Авг 04:21

Часовой пояс: UTC ± 0



Вы не можете начинать темы
Вы не можете отвечать на сообщения
Вы не можете редактировать свои сообщения
Вы не можете удалять свои сообщения
Вы не можете голосовать в опросах
Вы не можете прикреплять файлы к сообщениям
Вы можете скачивать файлы