Реализация / Серии: 1-24 из 24 (Сергей Щербин, Виктор Шкуратов) [2018, детектив, WEBRip-AVC]

Ответить на тему
Статистика раздачи
Размер:  16,53 GB   |    Зарегистрирован:  22 дня   |    Скачан:  0 раз
Сидов:  3  [  0 KB/s  ]  
   
 
Автор Сообщение

sss777sss ®

Пол: Не указан

Стаж: 3 месяца 3 дня

Сообщений: 308

Создавать темы 24-Май-2019 16:14

[Цитировать]

Реализация
Год выпуска: 2018
Производство: Триикс Медиа
Жанр: детектив
Продолжительность: 24 x ~ 00:50:00
Субтитры: Нет
Режиссёр: Сергей Щербин, Виктор Шкуратов
В ролях: Дмитрий Паламарчук, Кирилл Рубцов, Станислав Ткаченко, Сергей Юшкевич, Елена Вожакина, Андрей Терентьев, Эдуард Флёров, Сергей Колос, Владислав Резник, Кирилл Полухин, Вадим Сквирский, Михаил Тарабукин, Ксения Лукьянчикова, Сергей Паршин, Олег Метелев, Сергей Жарков, Дмитрий Белякин, Максим Дахненко, Наталья Высочанская, Владимир Петров (VIII), Валерий Гришко, Екатерина Ильина (III), Сергей Уманов, Роман Грибков, Кирилл Дудник, Андрей Перович, Виталий Григорьев, Юлия Кудояр, Ярослав Воронцов, Игорь Бедных, Сергей Шкарбан, Валентин Захаров (II), Евгений Антонов, Софья Карабулина, Андрей Некрасов (II), Вячеслав Аркунов, Андрей Пынзару, Александр Силаев, Андрей Бабенко, Анатолий Кондюбов, Анастасия Глез-Петропавловская, Егор Бакулин, Наталья Бурмистрова (II), Виталий Куликов, Дмитрий Быковский-Ромашов, Алексей Труфанов, Константин Гришанов, Дмитрий Гирев, Глеб Щур, Александр Макин, Антон Чернов, Виталий Исаков, Роман Рязанцев, Игорь Мосюк, Георгий Поздняков, Дмитрий Ягнов, Сергей Данилов, Сергей Мишанин, Анатолий Ильченко, Антон Сычёв, Ася Шибарова, Марк Тюриков, Александр Колесник, Николай Иванов (VII), Дмитрий Мурашев, Роман Жилкин, Родион Приходько, Руслан Китайгородский, Антонис Шаманиди, Дмитрий Маслов
Описание: Опытный розыскник из Великого Новгорода Андрей Красавец, после конфликта с криминальным бизнесменом, переведен на должность простого участкового в Центральный район Петербурга. Все, что хочет теперь Красавéц - это тихо и мирно прослужить три года, чтобы выйти на заслуженную пенсию. Но неожиданно он оказывается в центре разборки между авторитетом Дмитрием Яшиным и собственными коллегами из УМВД по Центральному району, что приводит к непредсказуемым последствиям….
…Майор полиции Истратов получает информацию, что в Петербург вернулся особо опасный преступник Игорь Кормильцев по кличке Пионер. У Истратова с ним личные счеты. Несколько лет назад Пионер стрелял в полицейского, который чудом остался жив. С тех пор жизнь майора кардинально изменилась. В данный момент его подозревают в получении крупной взятки. Поэтому задержать Пионера Истратов обязан до того, как на него самого наденут наручники…
…Леня Галкин, непонятно что забывший в полиции мажор, вынужден практически в одиночку разбираться в обстоятельствах гибели своей невесты – молодого, перспективного адвоката Юлии Ольшанской. Впервые в жизни парень готов идти до конца и любой ценой задержать убийц. Но кто-то очень могущественный пытается помешать его расследованию. Жизнь Галкина и его близких оказывается под угрозой. Опер с ужасом понимает, что не может верить даже своим коллегам…
Эти и другие сюжеты - в остросюжетной криминальной драме «Реализация».
Необычные истории из жизни полицейских. Обычные полицейские в необычных обстоятельствах. Каждый день жизнь испытывает героев на прочность. Как не допустить ошибки? Как принять единственно верное решение? Как сделать правильный выбор, если все против них?
Несмотря на разницу в характерах, все герои связаны одним общим делом – службе в полиции. И у каждого из них – своя реализация.
Реклама: Нет
Сэмпл: http://multi-up.com/1232682
Качество: WEBRip-AVC
Формат: MKV
Видео кодек: H.264
Аудио кодек: AC3
Видео: MPEG-4 (AVC), 1024x576, 25 fps, ~ 1800 kbps, ~ 0.12 bit/pixel
Аудио: AC3, 2 ch, 192 kbps, 48.0 kHz

MI

General
Unique ID : 241850406634063735691897369238515914338 (0xB5F2B1AB4963AB428BEF86AF15669662)
Complete name : 1. Сумрак (1 сер.).mkv
Format : Matroska
Format version : Version 2
File size : 708 MiB
Duration : 49 min 42 s
Overall bit rate : 1 992 kb/s
Encoded date : UTC 2019-05-21 14:38:05
Writing application : mkvmerge v7.8.0 ('River Man') 32bit built on Apr 3 2015 12:11:22
Writing library : libebml v1.3.1 + libmatroska v1.4.2
Video
ID : 1
Format : AVC
Format/Info : Advanced Video Codec
Format profile : High@L3.1
Format settings : CABAC / 6 Ref Frames
Format settings, CABAC : Yes
Format settings, ReFrames : 6 frames
Codec ID : V_MPEG4/ISO/AVC
Duration : 49 min 42 s
Bit rate : 1 800 kb/s
Width : 1 024 pixels
Height : 576 pixels
Display aspect ratio : 16:9
Frame rate mode : Constant
Frame rate : 25.000 FPS
Color space : YUV
Chroma subsampling : 4:2:0
Bit depth : 8 bits
Scan type : Progressive
Bits/(Pixel*Frame) : 0.122
Stream size : 626 MiB (88%)
Writing library : x264 core 157 r2969 d4099dd
Encoding settings : cabac=1 / ref=6 / deblock=1:0:0 / analyse=0x3:0x113 / me=umh / subme=8 / psy=1 / psy_rd=1.00:0.00 / mixed_ref=1 / me_range=24 / chroma_me=1 / trellis=1 / 8x8dct=1 / cqm=0 / deadzone=21,11 / fast_pskip=1 / chroma_qp_offset=-2 / threads=4 / lookahead_threads=4 / sliced_threads=0 / nr=0 / decimate=1 / interlaced=0 / bluray_compat=0 / stitchable=1 / constrained_intra=0 / bframes=6 / b_pyramid=2 / b_adapt=1 / b_bias=0 / direct=3 / weightb=1 / open_gop=0 / weightp=2 / keyint=250 / keyint_min=25 / scenecut=40 / intra_refresh=0 / rc_lookahead=40 / rc=2pass / mbtree=1 / bitrate=1800 / ratetol=1.0 / qcomp=0.60 / qpmin=0 / qpmax=69 / qpstep=4 / cplxblur=20.0 / qblur=0.5 / ip_ratio=1.40 / aq=1:1.00
Default : Yes
Forced : No
Audio
ID : 2
Format : AC-3
Format/Info : Audio Coding 3
Commercial name : Dolby Digital
Codec ID : A_AC3
Duration : 49 min 42 s
Bit rate mode : Constant
Bit rate : 192 kb/s
Channel(s) : 2 channels
Channel layout : L R
Sampling rate : 48.0 kHz
Frame rate : 31.250 FPS (1536 SPF)
Bit depth : 16 bits
Compression mode : Lossy
Stream size : 68.3 MiB (10%)
Service kind : Complete Main
Default : Yes
Forced : No

Скриншоты

Предыдущие и альтернативные раздачи
[cybertorrent.ru].t3068.torrent 
Торрент: Зарегистрирован [ 2019-05-24 16:14 ] · 889CDA3F66981C80E100D6703CDE4F7A9ADAB92C

Скачать .torrent

Скачать

44 KB

Статус: проверено
Скачан: 0 раз
Размер: 16,53 GB
terms.php
[Профиль] [ЛС]
Показать сообщения:    
Ответить на тему

Текущее время: 16-Июн 02:32

Часовой пояс: UTC ± 0



Вы не можете начинать темы
Вы не можете отвечать на сообщения
Вы не можете редактировать свои сообщения
Вы не можете удалять свои сообщения
Вы не можете голосовать в опросах
Вы не можете прикреплять файлы к сообщениям
Вы можете скачивать файлы