Ущелье "духов" (Сергей Нилов) [1991, драма, боевик, VHSRip]

Ответить на тему
Статистика раздачи
Размер:  1,36 GB   |    Зарегистрирован:  1 месяц 4 дня   |    Скачан:  0 раз

Полного источника не было: Никогда

   
 
Автор Сообщение

edich ®

Пол: Не указан

Стаж: 1 месяц 10 дней

Сообщений: 72

Создавать темы 18-Мар-2019 09:59

[Цитировать]

Ущелье "духов"
Жанр: драма, боевик
Год выпуска: 1991
Продолжительность: 01:21:33
Режиссёр: Сергей Нилов
В ролях: Виктор Павлюченков, Вадим Пожарский, Александр Казаков, Владислав Толдыков, Денис Банников, Мулькаман Оразов, Дмитрий Гребенщиков
Описание: О последней военной операции в Афганистане. Группа капитана Грачева получает задание захватить караван противника с оружием и наркотиками и разгромить одну из баз душманов. Пытаясь осмыслить суть этой странной и страшной войны, группа встречает отчаянное сопротивление...
Доп. информация: Оцифровка VHS (личный архив) и получение VHSRip alenavova
Эксклюзив для rutracker.org. При размещении данного релиза на других сайтах ссылка на автора alenavova обязательна.
Релиз
Семпл: https://yadi.sk/i/YKwQPyDPGIOarQ
Качество видео: VHSRip
Формат видео: AVI
Видео: 704x528 (1.33:1), 25 fps, XviD build 73 ~2193 kbps avg, 0.24 bit/pixel
Аудио: 48 kHz, AC3 Dolby Digital, 2/0 (L,R) ch, ~192 kbps

MediaInfo

Ущелье духов [by alenavova].avi
Format : AVI
Format/Info : Audio Video Interleave
File size : 1.36 GiB
Duration : 1 h 21 min
Overall bit rate : 2 395 kb/s
Movie name : Ущелье духов
Director : by alenavova
Writing application : VirtualDubMod 1.5.10.3 | www.virtualdub-fr.org || (build 2550/release)
Copyright : Edich2
Comment : Rutracker.org
Video
ID : 0
Format : MPEG-4 Visual
Format profile : Advanced Simple@L5
Format settings : BVOP1 / Custom Matrix
Format settings, BVOP : 1
Format settings, QPel : No
Format settings, GMC : No warppoints
Format settings, Matrix : Custom
Codec ID : XVID
Codec ID/Hint : XviD
Duration : 1 h 21 min
Bit rate : 2 194 kb/s
Width : 704 pixels
Height : 528 pixels
Display aspect ratio : 4:3
Frame rate : 25.000 FPS
Color space : YUV
Chroma subsampling : 4:2:0
Bit depth : 8 bits
Scan type : Progressive
Compression mode : Lossy
Bits/(Pixel*Frame) : 0.236
Stream size : 1.25 GiB (92%)
Writing library : XviD 73
Audio
ID : 1
Format : AC-3
Format/Info : Audio Coding 3
Codec ID : 2000
Duration : 1 h 21 min
Bit rate mode : Constant
Bit rate : 192 kb/s
Channel(s) : 2 channels
Channel positions : Front: L R
Sampling rate : 48.0 kHz
Frame rate : 31.250 FPS (1536 SPF)
Bit depth : 16 bits
Compression mode : Lossy
Stream size : 112 MiB (8%)
Alignment : Split accross interleaves
Interleave, duration : 40 ms (1.00 video frame)
Interleave, preload duratio : 500 ms
Service kind : Complete Main

Скриншоты


Если ваш рейтинг упадет ниже 0,3, вы не сможете скачивать торренты! Подробнее о рейтинге.

[cybertorrent.ru].t308.torrent 
Торрент: Зарегистрирован [ 2019-03-18 10:04 ] · C99F83EAE2EE64C034CE5862EF4FD5887F6014FE

Скачать .torrent

Скачать

14 KB

Статус: проверено
Скачан: 0 раз
Размер: 1,36 GB
terms.php
[Профиль] [ЛС]
Показать сообщения:    
Ответить на тему

Текущее время: 23-Апр 06:17

Часовой пояс: UTC ± 0



Вы не можете начинать темы
Вы не можете отвечать на сообщения
Вы не можете редактировать свои сообщения
Вы не можете удалять свои сообщения
Вы не можете голосовать в опросах
Вы не можете прикреплять файлы к сообщениям
Вы можете скачивать файлы