Ральф против интернета / Ralph Breaks the Internet (Фил Джонстон / Phil Johnston, Рич Мур / Rich Moore) [2018, США, мультфильм, комедия, приключения, семейный, фантастика, BDRip] [Оригинальный видеоряд] Dub

Ответить на тему
Статистика раздачи
Размер:  1,46 GB   |    Зарегистрирован:  2 месяца 29 дней   |    Скачан:  0 раз

Полного источника не было: Никогда

   
 
Автор Сообщение

karlll ®

Пол: Не указан

Стаж: 3 месяца 4 дня

Сообщений: 116

Создавать темы 18-Мар-2019 09:59

[Цитировать]

Ральф против интернета / Ralph Breaks the Internet- Год выхода: 2018
Страна: США
Производство: Walt Disney Animation Studios
Жанр: мультфильм, комедия, приключения, семейный, фантастика
Продолжительность: 01:52:31
Перевод: Профессиональный (полное дублирование)
Субтитры: Русские (форсированные) (внешние *.srt)-Режиссер:
Фил Джонстон / Phil Johnston, Рич Мур / Rich Moore-В ролях:
Джон Си Райли (Ralph, озвучка), Сара Силверман (Vanellope, озвучка), Галь Гадот (Shank, озвучка), Тараджи П. Хенсон (Yesss, озвучка), Джек МакБрайер (Felix, озвучка), Джейн Линч (Calhoun, озвучка), Алан Тьюдик (KnowsMore, озвучка), Альфред Молина (Double Dan, озвучка), Эд О’Нил (Mr. Litwak, озвучка), Шон Джамброун (The Eboy, озвучка)-О фильме:
На этот раз Ральф и Ванилопа фон Кекс выйдут за пределы зала игровых автоматов и отправятся покорять бескрайние просторы интернета, который может и не выдержать сокрушительного обаяния громилы.-Релиз групп | | IMDB | КиноПоиск | Сэмпл |-Качество: BDRip [Ralph.Breaks.the.Internet.2018.BluRay.1080p.AVC.DTS-HD.MA7.1-CHD]
Формат: AVI
Видео: 720x304 (2.37:1), 23.976 fps, XviD build 67 ~1461 kbps avg, 0.28 bit/pixel
Аудио: 48 kHz, AC3 Dolby Digital, 3/2 (L,C,R,l,r) + LFE ch, ~384 kbps avg - iTunes Russia-

Скриншоты

-

MediaInfo

Код:Полное имя : F:\Ralph_protiv_interneta_2018_BDRip_by_Dalemake.avi
Формат : AVI
Формат/Информация : Audio Video Interleave
Размер файла : 1,46 Гбайт
Продолжительность : 1 ч. 52 м.
Общий поток : 1855 Кбит/сек
Программа кодирования : VirtualDubMod 1.5.10.3 | www.virtualdub-fr.org || (build 2550/release)
Библиотека кодирования : VirtualDubMod build 2550/release
Видео
Идентификатор : 0
Формат : MPEG-4 Visual
Профиль формата : Advanced Simple@L5
Параметр BVOP формата : 2
Параметр QPel формата : Нет
Параметр GMC формата : Без точки перехода
Параметр матрицы формата : Выборочная
Идентификатор кодека : XVID
Идентификатор кодека/Подсказка : XviD
Продолжительность : 1 ч. 52 м.
Битрейт : 1462 Кбит/сек
Ширина : 720 пикселей
Высота : 304 пикселя
Соотношение сторон : 2,35:1
Частота кадров : 23,976 кадра/сек
Цветовое пространство : YUV
Субдискретизация насыщенности : 4:2:0
Битовая глубина : 8 бит
Тип развёртки : Прогрессивная
Метод сжатия : С потерями
Бит/(Пиксели*Кадры) : 0.279
Размер потока : 1,15 Гбайт (79%)
Библиотека кодирования : XviD 67
Аудио
Идентификатор : 1
Формат : AC-3
Формат/Информация : Audio Coding 3
Расширение режима : CM (complete main)
Параметр Endianness формата : Big
Идентификатор кодека : 2000
Продолжительность : 1 ч. 52 м.
Вид битрейта : Постоянный
Битрейт : 384 Кбит/сек
Каналы : 6 каналов
Расположение каналов : Front: L C R, Side: L R, LFE
Частота : 48,0 КГц
Метод сжатия : С потерями
Размер потока : 309 Мбайт (21%)
Выравнивание : Разделение по промежуткам
Продолжительность промежутка : 42 мс. (1,00 видеокадр)
Время предзагрузки промежутка : 500 мс.
-
[cybertorrent.ru].t309.torrent 
Торрент: Зарегистрирован [ 2019-03-18 10:04 ] · 624E2824A3D61D03BF00B08BF1824A40841717D3

Скачать .torrent

Скачать

15 KB

Статус: проверено
Скачан: 0 раз
Размер: 1,46 GB
terms.php
[Профиль] [ЛС]
Показать сообщения:    
Ответить на тему

Текущее время: 16-Июн 18:50

Часовой пояс: UTC ± 0



Вы не можете начинать темы
Вы не можете отвечать на сообщения
Вы не можете редактировать свои сообщения
Вы не можете удалять свои сообщения
Вы не можете голосовать в опросах
Вы не можете прикреплять файлы к сообщениям
Вы можете скачивать файлы