Тайная жизнь насекомых / Drôles de petites bêtes (Арно Бурон / Arnaud Bouro, Антун Крингс / Antoon Krings) [2017, Франция, Люксембург, мультфильм, комедия, приключения, семейный, WEBRip] Dub + Sub Rus, Ukr

Ответить на тему
Статистика раздачи
Размер:  1,46 GB   |    Зарегистрирован:  22 дня   |    Скачан:  1 раз

Полного источника не было: 21 день

   
 
Автор Сообщение

karlll ®

Пол: Не указан

Стаж: 3 месяца 3 дня

Сообщений: 116

Создавать темы 24-Май-2019 16:14

[Цитировать]

Тайная жизнь насекомых / Drôles de petites bêtes
Страна: Франция, Люксембург
Жанр: мультфильм, комедия, приключения, семейный
Год выпуска: 2017
Продолжительность: 01:27:51-Перевод: Профессиональный (дублированный)
Субтитры: русские, украинские
Оригинальная аудиодорожка: нет-Режиссер: Арно Бурон / Arnaud Bouro, Антун Крингс / Antoon Krings-В ролях: Виржини Эфира, Кев Адамс, Эммануэль Кюртиль, Селин Меллул, Жанфи Жансан, Венсан Ропион, Жереми Ковийо, Мари-Шарлотт Леклер, Дидье Гастин, Арно Леонар-Описание: Добро пожаловать в мир букашек: здесь у каждого — своя роль, все движется по своим правилам и законам, бурлит жизнь, полная взлетов и падений, радостей и печалей. Если заглянуть под листик или отодвинуть травинку, можно узнать все секреты таинственного мира насекомых. Надо лишь чуть-чуть напрячь воображение…- -Качество видео: WEBRip
Формат видео: AVI
Видео: 720x384 (1.88:1), 24.000 fps, XviD build 73 ~1978 kbps avg, 0.30 bit/pixel
Аудио 1: 48 kHz, AC3 Dolby Digital, 2/0 (L,R) ch, ~192 kbps | rus
Аудио 2: 48 kHz, AC3 Dolby Digital, 2/0 (L,R) ch, ~192 kbps | ukr-[box]Сэмпл[/box]-

MediaInfo

Код:Формат : AVI
Формат/Информация : Audio Video Interleave
Размер файла : 1,46 Гбайт
Продолжительность : 1 ч. 27 м.
Общий поток : 2378 Кбит/сек
Название фильма : Тайная жизнь насекомых_2017_WEBRip
Программа кодирования : VirtualDubMod 1.5.10.3 | www.virtualdub-fr.org || (build 2550/release)
Авторское право : порошков
Видео
Идентификатор : 0
Формат : MPEG-4 Visual
Профиль формата : Advanced Simple@L5
Настройки формата : BVOP1 / Custom Matrix
Параметр BVOP формата : 1
Параметр QPel формата : Нет
Параметр GMC формата : Без точки перехода
Параметр матрицы формата : Выборочная
Идентификатор кодека : XVID
Идентификатор кодека/Подсказка : XviD
Продолжительность : 1 ч. 27 м.
Битрейт : 1980 Кбит/сек
Ширина : 720 пикселей
Высота : 384 пикселя
Соотношение сторон : 1,85:1
Частота кадров : 24,000 кадра/сек
Цветовое пространство : YUV
Субдискретизация насыщенности : 4:2:0
Битовая глубина : 8 бит
Тип развёртки : Прогрессивная
Метод сжатия : С потерями
Бит/(Пиксели*Кадры) : 0.298
Размер потока : 1,21 Гбайт (83%)
Библиотека кодирования : XviD 73
Аудио #1
Идентификатор : 1
Формат : AC-3
Формат/Информация : Audio Coding 3
Коммерческое название : Dolby Digital
Идентификатор кодека : 2000
Продолжительность : 1 ч. 27 м.
Вид битрейта : Постоянный
Битрейт : 192 Кбит/сек
Каналы : 2 канала
ChannelLayout : L R
Частота : 48,0 КГц
Частота кадров : 31,250 кадров/сек (1536 SPF)
Битовая глубина : 16 бит
Метод сжатия : С потерями
Размер потока : 121 Мбайт (8%)
Выравнивание : Разделение по промежуткам
Продолжительность промежутка : 42 мс. (1,00 видеокадр)
Время предзагрузки промежутка : 500 мс.
Заголовок : rus
ServiceKind/String : Complete Main
Аудио #2
Идентификатор : 2
Формат : AC-3
Формат/Информация : Audio Coding 3
Коммерческое название : Dolby Digital
Идентификатор кодека : 2000
Продолжительность : 1 ч. 27 м.
Вид битрейта : Постоянный
Битрейт : 192 Кбит/сек
Каналы : 2 канала
ChannelLayout : L R
Частота : 48,0 КГц
Частота кадров : 31,250 кадров/сек (1536 SPF)
Битовая глубина : 16 бит
Метод сжатия : С потерями
Размер потока : 121 Мбайт (8%)
Выравнивание : Разделение по промежуткам
Продолжительность промежутка : 42 мс. (1,00 видеокадр)
Время предзагрузки промежутка : 500 мс.
Заголовок : ukr
ServiceKind/String : Complete Main

Скриншоты


[cybertorrent.ru].t3092.torrent 
Торрент: Зарегистрирован [ 2019-05-24 16:14 ] · 00657613724854E3FD6B5FE06BB7C45B4E567933

Скачать .torrent

Скачать

15 KB

Статус: проверено
Скачан: 1 раз
Размер: 1,46 GB
terms.php
[Профиль] [ЛС]
Показать сообщения:    
Ответить на тему

Текущее время: 16-Июн 02:41

Часовой пояс: UTC ± 0



Вы не можете начинать темы
Вы не можете отвечать на сообщения
Вы не можете редактировать свои сообщения
Вы не можете удалять свои сообщения
Вы не можете голосовать в опросах
Вы не можете прикреплять файлы к сообщениям
Вы можете скачивать файлы