Сартана в долине смерти / Сартана в долине стервятников / Sartana nella valle degli avvoltoi (Роберто Маури / Roberto Mauri) [1970, Италия, вестерн, приключения, DVDRip] AVO (Антон Алексеев)

Ответить на тему
Статистика раздачи
Размер:  1,36 GB   |    Зарегистрирован:  1 месяц 1 день   |    Скачан:  0 раз

Полного источника не было: Никогда

   
 
Автор Сообщение

serzh ®

Пол: Не указан

Стаж: 1 месяц 7 дней

Сообщений: 112

Создавать темы 18-Мар-2019 09:59

[Цитировать]

Сартана в долине смерти / Сартана в долине стервятников / Sartana nella valle degli avvoltoi
Страна: Италия
Жанр: вестерн, приключения
Год выпуска: 1970
Продолжительность: 01:18:50

Перевод: Авторский (одноголосый закадровый) Антон Алексеев
Субтитры: нет
Режиссер: Роберто Маури / Roberto Mauri
В ролях: Вильям Бергер, Уэйд Престон, Альдо Берти, Карло Джордана, Франко Роза, Лучано Пигоцци, Йоланда Модио, Памела Тудор, Жозиан Танцилли
Описание: Ли Кэллоуэй соглашается помочь троим преступникам выбраться из тюрьмы в обмен на половину украденного ими золота. Кэллоуэй выполняет свою часть сделки, но преступники предают его и бросают умирать в пустыне. Спустя нескольких дней Кэллоуэя спасает Эстер, выхаживает его, но только для того, чтобы получить за него награду....
Сэмпл: http://multi-up.com/1224412
Качество видео: DVDRip (Исходник Sartana nella valle degli avvoltoi (1970) DVD5)
Формат видео: AVI
Видео: XviD 73, 704x384, (1,85:1), 25,000 fps, 2269 Кбит/с, 8 бит
Аудио: Русский (АС3, 2 ch (Front: L R), 48,0 KHz, 192 Kbps)

MediaInfo

Общее
Полное имя : D:\Фильмы на трекер\Сартана в долине смерти (вестерн приключения 1970 год).avi
Формат : AVI
Формат/Информация : Audio Video Interleave
Размер файла : 1,36 Гбайт
Продолжительность : 1 ч. 18 м.
Общий поток : 2471 Кбит/сек
Программа кодирования : VirtualDubMod 1.5.10.2 (build 2540/release)
Библиотека кодирования : VirtualDubMod build 2540/release
Видео
Идентификатор : 0
Формат : MPEG-4 Visual
Профиль формата : Advanced Simple@L5
Параметр BVOP формата : 2
Параметр QPel формата : Нет
Параметр GMC формата : Без точки перехода
Параметр матрицы формата : Выборочная
Идентификатор кодека : XVID
Идентификатор кодека/Подсказка : XviD
Продолжительность : 1 ч. 18 м.
Битрейт : 2269 Кбит/сек
Ширина : 704 пикселя
Высота : 384 пикселя
Соотношение сторон : 1,85:1
Частота кадров : 25,000 кадров/сек
Цветовое пространство : YUV
Субдискретизация насыщенности : 4:2:0
Битовая глубина : 8 бит
Тип развёртки : Прогрессивная
Метод сжатия : С потерями
Бит/(Пиксели*Кадры) : 0.336
Размер потока : 1,25 Гбайт (92%)
Библиотека кодирования : XviD 73
Аудио
Идентификатор : 1
Формат : AC-3
Формат/Информация : Audio Coding 3
Расширение режима : CM (complete main)
Параметр Endianness формата : Big
Идентификатор кодека : 2000
Продолжительность : 1 ч. 18 м.
Вид битрейта : Постоянный
Битрейт : 192 Кбит/сек
Каналы : 2 канала
Расположение каналов : Front: L R
Частота : 48,0 КГц
Частота кадров : 31,250 кадров/сек (1536 spf)
Метод сжатия : С потерями
Размер потока : 108 Мбайт (8%)
Выравнивание : Разделение по промежуткам
Продолжительность промежутка : 40 мс. (1,00 видеокадр)
Время предзагрузки промежутка : 500 мс.

Скриншот c названием фильма

Скриншоты

Если ваш рейтинг упадет ниже 0,3, вы не сможете скачивать торренты! Подробнее о рейтинге.

[cybertorrent.ru].t312.torrent 
Торрент: Зарегистрирован [ 2019-03-18 10:04 ] · 4DEC14C269B37F6CEEE9F3C649518419B464A9F1

Скачать .torrent

Скачать

14 KB

Статус: проверено
Скачан: 0 раз
Размер: 1,36 GB
terms.php
[Профиль] [ЛС]
Показать сообщения:    
Ответить на тему

Текущее время: 20-Апр 00:13

Часовой пояс: UTC ± 0



Вы не можете начинать темы
Вы не можете отвечать на сообщения
Вы не можете редактировать свои сообщения
Вы не можете удалять свои сообщения
Вы не можете голосовать в опросах
Вы не можете прикреплять файлы к сообщениям
Вы можете скачивать файлы