Никита (Ольга Чикина) [1984, СССР, мультфильм, экранизация, WEBRip]

Ответить на тему
Статистика раздачи
Размер:  61 MB   |    Зарегистрирован:  2 месяца 29 дней   |    Скачан:  0 раз

Полного источника не было: Никогда

   
 
Автор Сообщение

xelon ®

Пол: Не указан

Стаж: 3 месяца 4 дня

Сообщений: 77

Создавать темы 18-Мар-2019 09:59

[Цитировать]

Никита
Страна: СССР
Жанр: мультфильм, экранизация
Продолжительность: 00:04:09
Год выпуска: 1984
Режиссёр: Ольга Чикина
Описание: По мотивам рассказа Андрея Платонова.
Отец ушёл на войну, мать пошла на работу, мальчик Никита остался в доме один. А вокруг живой мир...
Качество: WEBRip
Формат: AVI
Видео: 1849 kbps, 704х528 (5:4), 25.000 fps, MPEG-4 Visual (XviD)
Аудио: 192 kbps, 44.1 kHz, 2 channels, MPEG Audio (MP3)
Субтитры: отсутствуют

Подробные технические данные

General
Complete name : Никита (1984).avi
Format : AVI
Format/Info : Audio Video Interleave
File size : 61.0 MiB
Duration : 4mn 9s
Overall bit rate : 2 053 Kbps
Writing application : MEncoder SVN-r30881(20100311-gcc4.3.3)
Writing library : MPlayer
Video
ID : 0
Format : MPEG-4 Visual
Format profile : Advanced Simple@L5
Format settings, BVOP : 2
Format settings, QPel : No
Format settings, GMC : No warppoints
Format settings, Matrix : Default (H.263)
Codec ID : XVID
Codec ID/Hint : XviD
Duration : 4mn 9s
Bit rate : 1 849 Kbps
Width : 704 pixels
Height : 528 pixels
Display aspect ratio : 5:4
Original display aspect ratio : 4:3
Frame rate : 25.000 fps
Color space : YUV
Chroma subsampling : 4:2:0
Bit depth : 8 bits
Scan type : Progressive
Compression mode : Lossy
Bits/(Pixel*Frame) : 0.199
Stream size : 54.9 MiB (90%)
Writing library : XviD 1.2.1 (UTC 2008-12-04)
Audio
ID : 1
Format : MPEG Audio
Format version : Version 1
Format profile : Layer 3
Mode : Joint stereo
Mode extension : MS Stereo
Codec ID : 55
Codec ID/Hint : MP3
Duration : 4mn 9s
Bit rate mode : Constant
Bit rate : 192 Kbps
Channel(s) : 2 channels
Sampling rate : 44.1 KHz
Compression mode : Lossy
Delay relative to video : 40ms
Stream size : 5.70 MiB (9%)
Alignment : Aligned on interleaves
Interleave, duration : 26 ms (0.65 video frame)
Interleave, preload duration : 522 ms
Writing library : LAME3.98

Скриншоты

[cybertorrent.ru].t314.torrent 
Торрент: Зарегистрирован [ 2019-03-18 10:04 ] · CF27617548EBDE825C9791FB33D824093F323351

Скачать .torrent

Скачать

20 KB

Статус: проверено
Скачан: 0 раз
Размер: 61 MB
terms.php
[Профиль] [ЛС]
Показать сообщения:    
Ответить на тему

Текущее время: 16-Июн 19:55

Часовой пояс: UTC ± 0



Вы не можете начинать темы
Вы не можете отвечать на сообщения
Вы не можете редактировать свои сообщения
Вы не можете удалять свои сообщения
Вы не можете голосовать в опросах
Вы не можете прикреплять файлы к сообщениям
Вы можете скачивать файлы