Дилили в Париже / Dilili à Paris / Dilili in Paris (Мишель Осело / Michel Ocelot) [2018, Франция, Германия, Бельгия, мультфильм, детектив, семейный, BDRip] Original Fra + Sub Rus (Финекапа) + Sub Fra

Ответить на тему
Статистика раздачи
Размер:  1,44 GB   |    Зарегистрирован:  1 месяц 4 дня   |    Скачан:  0 раз

Полного источника не было: Никогда

   
 
Автор Сообщение

karlll ®

Пол: Не указан

Стаж: 1 месяц 10 дней

Сообщений: 62

Создавать темы 18-Мар-2019 09:59

[Цитировать]

Дилили в Париже / Dilili à Paris / Dilili in Paris
Страна: Франция, Германия, Бельгия
Жанр: мультфильм, детектив, семейный
Год выпуска: 2018
Продолжительность: 01:33:45
Перевод: Субтитры (Финекапа)
Субтитры: русские, французские
Оригинальная аудиодорожка: французский
Режиссер: Мишель Осело / Michel Ocelot
В ролях: Прюнель Шарль-Амброн, Энзо Ратсито, Натали Дессей, Элизабет Дуда, Оливье Вуазан
Описание: Начало XX века. Париж охвачен страхом. В городе пропадают маленькие девочки. Полиция бессильна. Девочка Дилили, уроженка Новой Каледонии, и её друг Орель хотят раскрыть тайну странных похищений малышек. Орель работает курьером и знает Париж вдоль и поперек, от местности до жителей. Среди его клиентов - артисты, художники, писатели, врачи, ученые - самые знаменитые люди, жившие в столице мира на рубеже веков. Все они помогают юным детективам в их благородном деле. Вместе с героями фильма мы познакомимся с Сарой Бернар, Эммой Кальве, Луизой Мишель, Марией Кюри, Огюстом Роденом, Камиллой Клодель, Анри де Тулуз-Лотреком, Клодом Моне, Гюставом Эйфелем... Можно "огласить весь список", но лучше "пусть сюрприз будет".

Доп. информация:
Огромное СПАСИБО xfiles за изготовление рипа и консультации.
Релиз посвящается Международному женскому дню 8 марта.
Качество видео: BDRip (Source: Dilili.A.Paris.2018.FRENCH.1080p.BluRay.REMUX.AVC.DTS-HDMA.5.1-TOXIC)
Формат видео: AVI
Видео: XVID, 704x384, 1.85:1, 24 FPS, 1747 kb/s
Аудио: AC-3, 48.0 kHz, 448 kb/s, 6 channels, французский
Формат субтитров: softsub (SRT)
Доп. информация о субтитрах: русские, французские для слабослышащих, отключаемые

MediaInfo

General
Complete name : ...\Dilili.A.Paris.2018.BDRip.avi
Format : AVI
Format/Info : Audio Video Interleave
File size : 1.44 GiB
Duration : 1 h 33 min
Overall bit rate : 2 205 kb/s
Writing application : VirtualDubMod 1.5.10.2 (build 2542/release)
Writing library : VirtualDubMod build 2542/release
Video
ID : 0
Format : MPEG-4 Visual
Format profile : Advanced Simple@L5
Format settings : BVOP1 / Custom Matrix
Format settings, BVOP : 1
Format settings, QPel : No
Format settings, GMC : No warppoints
Format settings, Matrix : Custom
Codec ID : XVID
Codec ID/Hint : XviD
Duration : 1 h 33 min
Bit rate : 1 747 kb/s
Width : 704 pixels
Height : 384 pixels
Display aspect ratio : 1.85:1
Frame rate : 24.000 FPS
Color space : YUV
Chroma subsampling : 4:2:0
Bit depth : 8 bits
Scan type : Progressive
Compression mode : Lossy
Bits/(Pixel*Frame) : 0.269
Stream size : 1.14 GiB (79%)
Writing library : XviD 67
Audio
ID : 1
Format : AC-3
Format/Info : Audio Coding 3
Commercial name : Dolby Digital
Codec ID : 2000
Duration : 1 h 33 min
Bit rate mode : Constant
Bit rate : 448 kb/s
Channel(s) : 6 channels
Channel layout : L R C LFE Ls Rs
Sampling rate : 48.0 kHz
Frame rate : 31.250 FPS (1536 SPF)
Bit depth : 16 bits
Compression mode : Lossy
Stream size : 300 MiB (20%)
Alignment : Split accross interleaves
Interleave, duration : 42 ms (1.00 video frame)
Interleave, preload duration : 500 ms
Service kind : Complete Main

Скриншот c названием фильма

Скриншоты


Фрагмент субтитров

1
00:00:52,800 --> 00:00:55,800
ДИЛИЛИ В ПАРИЖЕ
2
00:01:36,832 --> 00:01:38,832
Дилили, руанонебут!
3
00:02:03,916 --> 00:02:07,082
Ты говоришь на моем языке?
4
00:02:07,291 --> 00:02:10,874
Да. Похоже, что лучше тебя.
5
00:02:11,082 --> 00:02:13,416
Мне бы очень хотелось
с тобой познакомиться.
6
00:02:13,582 --> 00:02:14,767
Мне тоже.
7
00:02:14,791 --> 00:02:16,142
Давай назначим встречу.
8
00:02:16,166 --> 00:02:20,986
Я выйду в 18:30 через
четвертый выход.
9
00:02:21,291 --> 00:02:23,291
Дилили, руанонебут!
10
00:02:38,082 --> 00:02:39,850
Меня зовут Дилили.
11
00:02:39,874 --> 00:02:41,475
А меня - Орель.
12
00:02:41,499 --> 00:02:44,916
Очень приятно познакомиться.
13
00:02:45,124 --> 00:02:47,124
Мне тоже.
14
00:02:48,416 --> 00:02:50,350
Я принес тебе картофель фри.
15
00:02:50,374 --> 00:02:53,166
Спасибо. О, еще горячий!
16
00:02:53,332 --> 00:02:54,767
Это хорошо!
17
00:02:54,791 --> 00:02:57,832
Почему ты так хорошо
говоришь по-французски?
18
00:02:57,999 --> 00:03:01,874
У меня была очень хорошая
учительница – мадам Мишель.
19
00:03:02,041 --> 00:03:06,166
У меня была счастливая
встреча – с графиней.
20
00:03:06,332 --> 00:03:07,449
А кто она?
21
00:03:07,457 --> 00:03:10,499
Жена одного посла,
который возвращался в Париж
22
00:03:10,666 --> 00:03:12,517
на том же корабле, что и мы.

Если ваш рейтинг упадет ниже 0,3, вы не сможете скачивать торренты! Подробнее о рейтинге.

[cybertorrent.ru].t315.torrent 
Торрент: Зарегистрирован [ 2019-03-18 10:04 ] · AFA266742AFA60796B2CBB873425C71F4FA0804C

Скачать .torrent

Скачать

58 KB

Статус: проверено
Скачан: 0 раз
Размер: 1,44 GB
terms.php
[Профиль] [ЛС]
Показать сообщения:    
Ответить на тему

Текущее время: 23-Апр 06:47

Часовой пояс: UTC ± 0



Вы не можете начинать темы
Вы не можете отвечать на сообщения
Вы не можете редактировать свои сообщения
Вы не можете удалять свои сообщения
Вы не можете голосовать в опросах
Вы не можете прикреплять файлы к сообщениям
Вы можете скачивать файлы