Русский Бес (Григорий Константинопольский) [2018, комедия, триллер, драма, WEB-DLRip]

Ответить на тему
Статистика раздачи
Размер:  1,46 GB   |    Зарегистрирован:  2 месяца 28 дней   |    Скачан:  0 раз

Полного источника не было: Никогда

   
 
Автор Сообщение

Rodin ®

Пол: Не указан

Стаж: 3 месяца 3 дня

Сообщений: 120

Создавать темы 18-Мар-2019 09:59

[Цитировать]

Русский Бес
Страна: Россия
Жанр: комедия, триллер, драма
Год выпуска: 2018
Продолжительность: 01:40:06
Субтитры: нет-Режиссер: Григорий Константинопольский-В ролях: Иван Макаревич, Любовь Аксенова, Юлия Ауг, Виктория Исакова, Тимофей Трибунцев, Ксения Раппопорт, Александр Стриженов, Григорий Константинопольский, Виталий Кищенко, Михаил Ефремов-Описание: Святослав Иванов влюблен в Асю и решает на ней жениться. По образованию он художник-дизайнер, а отец Аси - управляющий крупного российского банка. Святослав решает начать собственный бизнес - открыть ресторан, чтобы создать для Аси те условия жизни, к которым она привыкла. На пути молодого героя неожиданно встает ряд серьезных препятствий, угрожающих его жизни... Он обнаруживает, что у него есть тайный недоброжелатель, который хочет погубить и его бизнес, и его самого. Молодой человек прибегает к самым крайним мерам, постепенно распутывая цепочку тайного заговора... И под конец истории Святославу все-таки удается найти ответ, кто же был его врагом...- -Качество видео: WEB-DLRip
Формат видео: AVI
Видео: 720x304 (2.37:1), 25 fps, XviD build 73 ~1689 kbps avg, 0.31 bit/pixel
Аудио: 48 kHz, AC3 Dolby Digital, 3/2 (L,C,R,l,r) + LFE ch, ~384 kbps-[box]Сэмпл[/box]-

MediaInfo

Код:Формат : AVI
Формат/Информация : Audio Video Interleave
Размер файла : 1,46 Гбайт
Продолжительность : 1 ч. 40 м.
Общий поток : 2083 Кбит/сек
Программа кодирования : VirtualDubMod 1.5.10.3 | www.virtualdub-fr.org || (build 2550/release)
Библиотека кодирования : VirtualDubMod build 2550/release
Видео
Идентификатор : 0
Формат : MPEG-4 Visual
Профиль формата : Advanced Simple@L5
Настройки формата : BVOP1 / Custom Matrix
Параметр BVOP формата : 1
Параметр QPel формата : Нет
Параметр GMC формата : Без точки перехода
Параметр матрицы формата : Выборочная
Идентификатор кодека : XVID
Идентификатор кодека/Подсказка : XviD
Продолжительность : 1 ч. 40 м.
Битрейт : 1690 Кбит/сек
Ширина : 720 пикселей
Высота : 304 пикселя
Соотношение сторон : 2,35:1
Частота кадров : 25,000 кадров/сек
Цветовое пространство : YUV
Субдискретизация насыщенности : 4:2:0
Битовая глубина : 8 бит
Тип развёртки : Прогрессивная
Метод сжатия : С потерями
Бит/(Пиксели*Кадры) : 0.309
Размер потока : 1,18 Гбайт (81%)
Библиотека кодирования : XviD 73
Аудио
Идентификатор : 1
Формат : AC-3
Формат/Информация : Audio Coding 3
Коммерческое название : Dolby Digital
Идентификатор кодека : 2000
Продолжительность : 1 ч. 40 м.
Вид битрейта : Постоянный
Битрейт : 384 Кбит/сек
Каналы : 6 каналов
Channel layout : L R C LFE Ls Rs
Частота : 48,0 КГц
Частота кадров : 31,250 кадров/сек (1536 SPF)
Битовая глубина : 16 бит
Метод сжатия : С потерями
Размер потока : 275 Мбайт (18%)
Выравнивание : Разделение по промежуткам
Продолжительность промежутка : 40 мс. (1,00 видеокадр)
Время предзагрузки промежутка : 500 мс.
ServiceKind/String : Complete Main

Скриншоты


[cybertorrent.ru].t318.torrent 
Торрент: Зарегистрирован [ 2019-03-18 10:04 ] · 30187FB828917B4CC681F40EE992306B36D9C32C

Скачать .torrent

Скачать

15 KB

Статус: проверено
Скачан: 0 раз
Размер: 1,46 GB
terms.php
[Профиль] [ЛС]
Показать сообщения:    
Ответить на тему

Текущее время: 16-Июн 09:09

Часовой пояс: UTC ± 0



Вы не можете начинать темы
Вы не можете отвечать на сообщения
Вы не можете редактировать свои сообщения
Вы не можете удалять свои сообщения
Вы не можете голосовать в опросах
Вы не можете прикреплять файлы к сообщениям
Вы можете скачивать файлы