На последнем дыхании / Breathless (Джим МакБрайд / Jim McBride) [1983, США, боевик, триллер, драма, VHSRip] [FullScreen] AVO (Сергей Дьяков)

Ответить на тему
Статистика раздачи
Размер:  1,37 GB   |    Зарегистрирован:  1 месяц 6 дней   |    Скачан:  0 раз

Полного источника не было: Никогда

   
 
Автор Сообщение

serzh ®

Пол: Не указан

Стаж: 1 месяц 12 дней

Сообщений: 120

Создавать темы 18-Мар-2019 09:59

[Цитировать]

На последнем дыхании / Breathless
[FullScreen]
«He's the last man on earth any woman needs... and every woman wants»
Страна: США
Жанр: боевик, триллер, драма
Год выпуска: 1983
Продолжительность: 01:35:33
Перевод: Авторский (одноголосый закадровый) Сергей Дьяков
Субтитры: нет
Режиссер: Джим МакБрайд / Jim McBride
В ролях: Ричард Гир, Валери Каприски, Арт Метрано, Джон П. Райан, Уильям Теппер, Роберт Данн, Гэрри Гудроу, Лиза Джейн Перски, Джеймс Хонг, Вальдемар Калиновски
Описание: Обстоятельства складываются так, что Джесси необходимо срочно уносить ноги из Лас-Вегаса. Этот импульсивный молодой человек не привык жить по закону. Он угоняет автомобиль, а по пути в Лос-Анджелес ему приходится застрелить полицейского. По мере приближения к городу его положение все более усугубляется. Кажется, что весь мир ополчился против него.
Но, как ни странно, именно в это время он знакомится с девушкой, которая заставляет его сердце то колотиться в бешеном темпе, то замирать от остроты чувств. Он ждал эту девушку всю жизнь. Но теперь, когда за ним охотится вся полиция штата, думать приходится совсем о другом.
Доп. информация: Оцифровка VHS (личный архив) и получение VHSRip alenavova
Эксклюзив для rutracker.org. При размещении данного релиза на других сайтах ссылка на автора alenavova обязательна.
Релиз
Сэмпл: https://yadi.sk/i/_mVBlYmOUaipTQ
Качество видео: VHSRip
Формат видео: AVI
Видео: 704x528 (1.33:1), 25 fps, XviD build 73 ~1847 kbps avg, 0.20 bit/pixel
Аудио: 48 kHz, AC3 Dolby Digital, 2/0 (L,R) ch, ~192 kbps

MediaInfo

На последнем дыхании - Breathless [by alenavova].avi
Format : AVI
Format/Info : Audio Video Interleave
File size : 1.37 GiB
Duration : 1 h 35 min
Overall bit rate : 2 049 kb/s
Movie name : На последнем дыхании - Breathless [by alenavova]
Director : by alenavova
Writing application : VirtualDubMod 1.5.10.3 | www.virtualdub-fr.org || (build 2550/release)
Copyright : Edich2
Comment : Rutracker.org
Video
ID : 0
Format : MPEG-4 Visual
Format profile : Advanced Simple@L5
Format settings : BVOP1 / Custom Matrix
Format settings, BVOP : 1
Format settings, QPel : No
Format settings, GMC : No warppoints
Format settings, Matrix : Custom
Codec ID : XVID
Codec ID/Hint : XviD
Duration : 1 h 35 min
Bit rate : 1 848 kb/s
Width : 704 pixels
Height : 528 pixels
Display aspect ratio : 4:3
Frame rate : 25.000 FPS
Color space : YUV
Chroma subsampling : 4:2:0
Bit depth : 8 bits
Scan type : Progressive
Compression mode : Lossy
Bits/(Pixel*Frame) : 0.199
Stream size : 1.23 GiB (90%)
Writing library : XviD 73
Audio
ID : 1
Format : AC-3
Format/Info : Audio Coding 3
Codec ID : 2000
Duration : 1 h 35 min
Bit rate mode : Constant
Bit rate : 192 kb/s
Channel(s) : 2 channels
Channel positions : Front: L R
Sampling rate : 48.0 kHz
Frame rate : 31.250 FPS (1536 SPF)
Bit depth : 16 bits
Compression mode : Lossy
Stream size : 131 MiB (9%)
Alignment : Split accross interleaves
Interleave, duration : 40 ms (1.00 video frame)
Interleave, preload duratio : 500 ms
Service kind : Complete Main

Скриншоты


Если ваш рейтинг упадет ниже 0,3, вы не сможете скачивать торренты! Подробнее о рейтинге.

[cybertorrent.ru].t322.torrent 
Торрент: Зарегистрирован [ 2019-03-18 10:04 ] · EC00CDF9B505186F2C1F9B096A0F0817A703CADA

Скачать .torrent

Скачать

14 KB

Статус: проверено
Скачан: 0 раз
Размер: 1,37 GB
terms.php
[Профиль] [ЛС]
Показать сообщения:    
Ответить на тему

Текущее время: 24-Апр 17:49

Часовой пояс: UTC ± 0



Вы не можете начинать темы
Вы не можете отвечать на сообщения
Вы не можете редактировать свои сообщения
Вы не можете удалять свои сообщения
Вы не можете голосовать в опросах
Вы не можете прикреплять файлы к сообщениям
Вы можете скачивать файлы