Идеальный муж (Виктор Георгиев) [1980, комедия, DVB]

Ответить на тему
Статистика раздачи
Размер:  3,08 GB   |    Зарегистрирован:  5 месяцев 30 дней   |    Скачан:  0 раз

Полного источника не было: Никогда

   
 
Автор Сообщение

edich ®

Пол: Не указан

Стаж: 6 месяцев 5 дней

Сообщений: 173

Создавать темы 18-Мар-2019 09:59

[Цитировать]

Идеальный муж
Жанр: комедия
Год выпуска: 1980
Продолжительность: 01:27:37
Режиссёр: Виктор Георгиев
В ролях: Юрий Яковлев, Людмила Гурченко, Анна Твеленева, Елена Коренева, Евгения Ханаева, Эве Киви, Алла Будницкая, Игорь Дмитриев, Борис Химичев, Альберт Филозов
Описание: сэр Роберт Чилтерн, один из столпов английского общества, восходящая звезда британской политики, слывший идеальным мужем и безупречным человеком, оказывается замешанным в грязном деле. Скандал неминуем. Но Чилтерна волнует не карьера и не мнение света - он хочет во что бы то ни стало сохранить любовь своей жены...
Доп. информация: запись потока *.ts со спутника Экспресс АМ7, 40° в.д., ремукс в *.mkv программой VideoReDo.
Качество видео: DVB
Формат видео: MKV
Видео: MPEG2 Video, 720(1024)x576 (4:3), 25,000 кадров/сек, 4768 Кбит/сек
Аудио: MPEG Audio, 48,0 КГц, 256 Кбит/сек, 2 канала

MediaInfo

Общее
Уникальный идентификатор : 171479089165536530712955359297754878672 (0x8101ABD816EFC23DB01B0C298CEBD2D0)
Полное имя : H:\НАШЕ_А_И\ИДЕАЛЬНЫЙ МУЖ 16Х9 СУБ (Kultura 40).mkv
Формат : Matroska
Версия формата : Version 4 / Version 2
Размер файла : 3,08 Гбайт
Продолжительность : 1 ч. 27 м.
Режим общего битрейта : Переменный
Общий поток : 5033 Кбит/сек
Дата кодирования : UTC 2019-02-23 11:59:19
Программа кодирования : mkvmerge v7.3.0 ('Nouages') 64bit built on Oct 22 2014 18:53:34
Библиотека кодирования : libebml v1.3.0 + libmatroska v1.4.1
Видео
Идентификатор : 1
Формат : MPEG Video
Версия формата : Version 2
Профиль формата : Main@Main
Параметр BVOP формата : Да
Параметр матрицы формата : Выборочная
Параметр GOP формата : M=3, N=15
Структура изображения : Frame
Идентификатор кодека : V_MPEG2
Идентификатор кодека/Информация : MPEG 1 or 2 Video
Продолжительность : 1 ч. 27 м.
Вид битрейта : Переменный
Битрейт : 4775 Кбит/сек
Максимальный битрейт : 15,0 Мбит/сек
Ширина : 720 пикселей
Высота : 576 пикселей
Соотношение сторон : 16:9
Режим частоты кадров : Постоянный
Частота кадров : 25,000 кадров/сек
Стандарт вещания : PAL
Цветовое пространство : YUV
Субдискретизация насыщенности : 4:2:0
Битовая глубина : 8 бит
Тип развёртки : Чересстрочная
Порядок развёртки : Верхнее поле первое
Метод сжатия : С потерями
Бит/(Пиксели*Кадры) : 0.461
Временной код первого кадра : 00:00:00:00
Оригинал временного кода : Group of pictures header
GOP, открыто/закрыто : Открыто
GOP, открыто/закрыто на первом кадре : Закрыто
Размер потока : 2,92 Гбайт (95%)
Default : Да
Forced : Нет
Аудио
Идентификатор : 2
Формат : MPEG Audio
Версия формата : Version 1
Профиль формата : Layer 2
Идентификатор кодека : A_MPEG/L2
Идентификатор кодека/Подсказка : MP2
Продолжительность : 1 ч. 27 м.
Вид битрейта : Постоянный
Битрейт : 256 Кбит/сек
Каналы : 2 канала
Частота : 48,0 КГц
Частота кадров : 41,667 кадра/сек (1152 spf)
Метод сжатия : С потерями
Задержка видео : 1 мс.
Размер потока : 160 Мбайт (5%)
Язык : English
Default : Да
Forced : Нет
Текст
Идентификатор : 3
Формат : UTF-8
Идентификатор кодека : S_TEXT/UTF8
Идентификатор кодека/Информация : UTF-8 Plain Text
Продолжительность : 1 ч. 27 м.
Битрейт : 128 бит/сек
Count of elements : 1146
Размер потока : 82,1 Кбайт (0%)
Default : Да
Forced : Нет
[cybertorrent.ru].t323.torrent 
Торрент: Зарегистрирован [ 2019-03-18 10:04 ] · 30C9EA826D47B10C807083B2531B6A472AB0F236

Скачать .torrent

Скачать

16 KB

Статус: проверено
Скачан: 0 раз
Размер: 3,08 GB
terms.php
[Профиль] [ЛС]
Показать сообщения:    
Ответить на тему

Текущее время: 18-Сен 09:01

Часовой пояс: UTC ± 0



Вы не можете начинать темы
Вы не можете отвечать на сообщения
Вы не можете редактировать свои сообщения
Вы не можете удалять свои сообщения
Вы не можете голосовать в опросах
Вы не можете прикреплять файлы к сообщениям
Вы можете скачивать файлы

Партнеры

Выражаем благодарность всем людям, внесшим вклад в наш сайт в далёком прошлом. Мы помним Вас, гордимся Вами и ждём Вас обратно!

Интересное в сети