Охота (Жакен Даненов, Гани Кистауов) [1988, СССР, мультфильм, DVB]

Ответить на тему
Статистика раздачи
Размер:  308 MB   |    Зарегистрирован:  5 месяцев 30 дней   |    Скачан:  0 раз

Полного источника не было: Никогда

   
 
Автор Сообщение

xelon ®

Пол: Не указан

Стаж: 6 месяцев 5 дней

Сообщений: 108

Создавать темы 18-Мар-2019 09:59

[Цитировать]

Охота Жанр: мультфильм
Студия: Казахфильм
Продолжительность: 00:18:50
Год выпуска: 1988-Режиссёры: Жакен Даненов, Гани Кистауов-Описание: В фильме, снятому по рассказу Э.Сеттон-Томпсона «Крэг - Кутенейский баран», рассказывается о том, как в неутолимой жажде власти над миром Природы, человек уничтожая ее, обрекает себя на неминуемую гибель.-Качество: DVB [Ел Арна] (эфир 23.02.2019)
Формат: TS
Видео: AVC, 720x576 (16:9) @ 1047x576, 25 fps, ~1979 kbps, 0.191 bit/pixel
Аудио: [RUS] MP2, 48 kHz, 2 ch, 192 kbps

Mediainfo

General
ID : 1 (0x1)
Complete name : H:\Раздачи\Охота (1988) [DVB].ts
Format : MPEG-TS
File size : 308 MiB
Duration : 18 min 50 s
Overall bit rate mode : Variable
Overall bit rate : 2 286 kb/s
Video
ID : 67 (0x43)
Menu ID : 1 (0x1)
Format : AVC
Format/Info : Advanced Video Codec
Format profile : High@L3
Format settings : CABAC / 3 Ref Frames
Format settings, CABAC : Yes
Format settings, ReFrames : 3 frames
Codec ID : 27
Duration : 18 min 50 s
Bit rate : 1 979 kb/s
Width : 720 pixels
Height : 576 pixels
Display aspect ratio : 16:9
Frame rate : 25.000 FPS
Standard : Component
Color space : YUV
Chroma subsampling : 4:2:0
Bit depth : 8 bits
Scan type : Interlaced
Scan type, store method : Separated fields
Scan order : Top Field First
Bits/(Pixel*Frame) : 0.191
Stream size : 267 MiB (87%)
Color range : Limited
Color primaries : BT.601 PAL
Transfer characteristics : BT.470 System B/G
Matrix coefficients : BT.470 System B/G
Audio
ID : 68 (0x44)
Menu ID : 1 (0x1)
Format : MPEG Audio
Format version : Version 1
Format profile : Layer 2
Codec ID : 3
Duration : 18 min 50 s
Bit rate mode : Constant
Bit rate : 192 kb/s
Channel(s) : 2 channels
Sampling rate : 48.0 kHz
Frame rate : 41.667 FPS (1152 SPF)
Compression mode : Lossy
Delay relative to video : -40 ms
Stream size : 25.9 MiB (8%)
Language : English

Скриншоты

[cybertorrent.ru].t326.torrent 
Торрент: Зарегистрирован [ 2019-03-18 10:04 ] · 5824B8A7EB43EA16354B8599CB72139407E714F1

Скачать .torrent

Скачать

12 KB

Статус: проверено
Скачан: 0 раз
Размер: 308 MB
terms.php
[Профиль] [ЛС]
Показать сообщения:    
Ответить на тему

Текущее время: 17-Сен 19:47

Часовой пояс: UTC ± 0



Вы не можете начинать темы
Вы не можете отвечать на сообщения
Вы не можете редактировать свои сообщения
Вы не можете удалять свои сообщения
Вы не можете голосовать в опросах
Вы не можете прикреплять файлы к сообщениям
Вы можете скачивать файлы

Партнеры

Выражаем благодарность всем людям, внесшим вклад в наш сайт в далёком прошлом. Мы помним Вас, гордимся Вами и ждём Вас обратно!

Интересное в сети