Малыш Жозеф / Petit Joseph (Жан-Мишель Баржоль / Jean-Michel Barjol) [1982, Франция, драма, семейный, DVDRip-AVC] VO + Sub Rus + Original Fra

Ответить на тему
Статистика раздачи
Размер:  802 MB   |    Зарегистрирован:  1 месяц 6 дней   |    Скачан:  0 раз

Полного источника не было: Никогда

   
 
Автор Сообщение

serzh ®

Пол: Не указан

Стаж: 1 месяц 12 дней

Сообщений: 120

Создавать темы 18-Мар-2019 09:59

[Цитировать]

Малыш Жозеф / Petit Joseph
Страна: Франция
Жанр: драма, семейный
Год выпуска: 1982
Продолжительность: 01:23:22
Перевод: Одноголосый закадровый
Субтитры: русские, английские
Оригинальная аудиодорожка: французский
Режиссер: Жан-Мишель Баржоль / Jean-Michel Barjol
В ролях: Найше Кодрон / Naïché Caudron, Жан-Марк Тибо / Jean-Marc Thibault, Juliette Brac, Жан-Поль Бланк / Jean-Paul Blanc, Изабель Вайнгартен / Isabelle Weingarten, Паскаль де Буассон / Pascale de Boysson, Кристоф Доннер / Christophe Donner, Christophe Aubourg, Cyril Aubourg, Ноэль Мени / Noëlle Mesny, Серж Ричард / Serge Richard
Описание: Жозеф - семилетний мальчик, проживающий со своими родителями в пригороде Парижа. Увы, но брак его родителей нельзя назвать идеальным. И поскольку его матери скоро предстоит отправиться в роддом, Жозефа на предстоящие каникулы отправляют к дедушке с бабушкой. Вместе с ними и тремя дядьками наш герой совершает поездку на север Франции и в Англию. Однако по возвращении Жозеф узнает, что у него теперь есть сестра – Элиза. И, как ни странно, но именно рождение сестры стало началом краха их семьи.
Сэмпл: http://multi-up.com/1224533
Качество видео: DVDRip-AVC
Формат видео: MKV
Видео: AVC at 955 Кбит/сек : 716 x 452 (1.688) at 25.000 fps
Аудио 1: AAC at 163 Кбит/сек : 2 канала, 48,0 КГц Language : ru
Аудио 2: AAC at 224 Кбит/сек : 2 канала, 48,0 КГц Language : fr
Формат субтитров: prerendered (IDX+SUB)
Доп. информация о субтитрах: русские (Thoma_), английские отключаемые

MediaInfo

Общее
Уникальный идентификатор : 200770691838327378877607330459922776194 (0x970B075B4972CB929EFBFA3BE5CCC082)
Полное имя : F:\С моей озвучкой\Малыш Жозеф.mkv
Формат : Matroska
Версия формата : Version 4 / Version 2
Размер файла : 802 Мбайт
Продолжительность : 1 ч. 23 м.
Общий поток : 1345 Кбит/сек
Дата кодирования : UTC 2019-02-23 17:40:29
Программа кодирования : mkvmerge v7.9.0 ('Birds') 64bit
Библиотека кодирования : libebml v1.3.1 + libmatroska v1.4.2
Видео
Идентификатор : 1
Формат : AVC
Формат/Информация : Advanced Video Codec
Профиль формата : Main@L3.1
Параметр CABAC формата : Да
Параметр ReFrames формата : 4 кадра
Идентификатор кодека : V_MPEG4/ISO/AVC
Продолжительность : 1 ч. 23 м.
Битрейт : 955 Кбит/сек
Ширина : 716 пикселей
Высота : 452 пикселя
Соотношение сторон : 5:3
Соотношение сторон в оригинале : 5:3
Режим частоты кадров : Постоянный
Частота кадров : 25,000 кадров/сек
Цветовое пространство : YUV
Субдискретизация насыщенности : 4:2:0
Битовая глубина : 8 бит
Тип развёртки : Прогрессивная
Бит/(Пиксели*Кадры) : 0.118
Размер потока : 569 Мбайт (71%)
Заголовок : Petit.Joseph.1982-HuSh
Библиотека кодирования : x264 core 142 r2479 dd79a61
Настройки программы : cabac=1 / ref=1 / deblock=1:-1:-1 / analyse=0x1:0x111 / me=hex / subme=2 / psy=1 / psy_rd=1.00:0.15 / mixed_ref=0 / me_range=16 / chroma_me=1 / trellis=0 / 8x8dct=0 / cqm=0 / deadzone=21,11 / fast_pskip=1 / chroma_qp_offset=0 / threads=6 / lookahead_threads=2 / sliced_threads=0 / nr=0 / decimate=1 / interlaced=0 / bluray_compat=0 / constrained_intra=0 / bframes=3 / b_pyramid=2 / b_adapt=1 / b_bias=0 / direct=1 / weightb=1 / open_gop=0 / weightp=1 / keyint=250 / keyint_min=25 / scenecut=40 / intra_refresh=0 / rc_lookahead=10 / rc=2pass / mbtree=1 / bitrate=955 / ratetol=1.0 / qcomp=0.60 / qpmin=0 / qpmax=69 / qpstep=4 / cplxblur=20.0 / qblur=0.5 / vbv_maxrate=14000 / vbv_bufsize=14000 / nal_hrd=none / filler=0 / ip_ratio=1.40 / aq=1:1.00
Default : Да
Forced : Нет
Цветовой диапазон : Limited
Основные цвета : BT.601 PAL
Характеристики трансфера : BT.709
Коэффициенты матрицы : BT.601
Аудио #1
Идентификатор : 2
Формат : AAC
Формат/Информация : Advanced Audio Codec
Профиль формата : LC
Идентификатор кодека : A_AAC
Продолжительность : 1 ч. 23 м.
Битрейт : 163 Кбит/сек
Каналы : 2 канала
Расположение каналов : Front: L R
Частота : 48,0 КГц
Частота кадров : 46,875 кадров/сек (1024 spf)
Метод сжатия : С потерями
Задержка видео : -80 мс.
Размер потока : 97,0 Мбайт (12%)
Язык : Russian
Default : Нет
Forced : Нет
Аудио #2
Идентификатор : 3
Формат : AAC
Формат/Информация : Advanced Audio Codec
Профиль формата : LC
Идентификатор кодека : A_AAC
Продолжительность : 1 ч. 23 м.
Битрейт : 224 Кбит/сек
Каналы : 2 канала
Расположение каналов : Front: L R
Частота : 48,0 КГц
Частота кадров : 46,875 кадров/сек (1024 spf)
Метод сжатия : С потерями
Задержка видео : -21 мс.
Размер потока : 134 Мбайт (17%)
Заголовок : Stereo.AAC@224kbps
Язык : French
Default : Нет
Forced : Нет
Текст #1
Идентификатор : 4
Формат : UTF-8
Идентификатор кодека : S_TEXT/UTF8
Идентификатор кодека/Информация : UTF-8 Plain Text
Продолжительность : 1 ч. 22 м.
Битрейт : 91 бит/сек
ElementCount : 1060
Размер потока : 55,5 Кбайт (0%)
Язык : Russian
Default : Нет
Forced : Нет
Текст #2
Идентификатор : 5
Формат : UTF-8
Идентификатор кодека : S_TEXT/UTF8
Идентификатор кодека/Информация : UTF-8 Plain Text
Продолжительность : 1 ч. 22 м.
Битрейт : 53 бит/сек
ElementCount : 1060
Размер потока : 32,2 Кбайт (0%)
Язык : English
Default : Нет
Forced : Нет

Скриншоты

Если ваш рейтинг упадет ниже 0,3, вы не сможете скачивать торренты! Подробнее о рейтинге.

[cybertorrent.ru].t328.torrent 
Торрент: Зарегистрирован [ 2019-03-18 10:04 ] · 2CCF549375145B983A1AA06CDF3709B8A15CA94F

Скачать .torrent

Скачать

16 KB

Статус: проверено
Скачан: 0 раз
Размер: 802 MB
terms.php
[Профиль] [ЛС]
Показать сообщения:    
Ответить на тему

Текущее время: 24-Апр 18:22

Часовой пояс: UTC ± 0



Вы не можете начинать темы
Вы не можете отвечать на сообщения
Вы не можете редактировать свои сообщения
Вы не можете удалять свои сообщения
Вы не можете голосовать в опросах
Вы не можете прикреплять файлы к сообщениям
Вы можете скачивать файлы