Непредвиденная встреча (Н.Намазбеков) [1989, СССР, мультфильм, фантастика, кукольный, DVB]

Ответить на тему
Статистика раздачи
Размер:  154 MB   |    Зарегистрирован:  3 месяца 7 дней   |    Скачан:  0 раз

Полного источника не было: Никогда

   
 
Автор Сообщение

xelon ®

Пол: Не указан

Стаж: 3 месяца 13 дней

Сообщений: 78

Создавать темы 18-Мар-2019 09:59

[Цитировать]

Непредвиденная встреча Жанр: мультфильм, фантастика, кукольный
Студия: Казахфильм
Продолжительность: 00:09:52
Год выпуска: 1989-Режиссёр: Н.Намазбеков-Описание: Философский мультфильм об инопланетянине, переживавшем чувство одиночества и потерянности.-Качество: DVB [Ел Арна] (эфир 24.02.2019)
Формат: TS
Видео: AVC, 720x576 (16:9) @ 1047x576, 25 fps, ~1881 kbps, 0.181 bit/pixel
Аудио: [RUS] MP2, 48 kHz, 2 ch, 192 kbps

Mediainfo

General
ID : 1 (0x1)
Complete name : H:\Раздачи\Непредвиденная встреча (1989) [DVB].ts
Format : MPEG-TS
File size : 154 MiB
Duration : 9 min 52 s
Overall bit rate mode : Variable
Overall bit rate : 2 183 kb/s
Video
ID : 67 (0x43)
Menu ID : 1 (0x1)
Format : AVC
Format/Info : Advanced Video Codec
Format profile : High@L3
Format settings : CABAC / 3 Ref Frames
Format settings, CABAC : Yes
Format settings, ReFrames : 3 frames
Codec ID : 27
Duration : 9 min 52 s
Bit rate : 1 881 kb/s
Width : 720 pixels
Height : 576 pixels
Display aspect ratio : 16:9
Frame rate : 25.000 FPS
Standard : Component
Color space : YUV
Chroma subsampling : 4:2:0
Bit depth : 8 bits
Scan type : Interlaced
Scan type, store method : Separated fields
Scan order : Top Field First
Bits/(Pixel*Frame) : 0.181
Stream size : 133 MiB (86%)
Color range : Limited
Color primaries : BT.601 PAL
Transfer characteristics : BT.470 System B/G
Matrix coefficients : BT.470 System B/G
Audio
ID : 68 (0x44)
Menu ID : 1 (0x1)
Format : MPEG Audio
Format version : Version 1
Format profile : Layer 2
Codec ID : 3
Duration : 9 min 52 s
Bit rate mode : Constant
Bit rate : 192 kb/s
Channel(s) : 2 channels
Sampling rate : 48.0 kHz
Frame rate : 41.667 FPS (1152 SPF)
Compression mode : Lossy
Delay relative to video : -120 ms
Stream size : 13.6 MiB (9%)
Language : English

Скриншоты

[cybertorrent.ru].t332.torrent 
Торрент: Зарегистрирован [ 2019-03-18 10:04 ] · 8A1A9BF039C442044474D796C29025D54687C000

Скачать .torrent

Скачать

13 KB

Статус: проверено
Скачан: 0 раз
Размер: 154 MB
terms.php
[Профиль] [ЛС]
Показать сообщения:    
Ответить на тему

Текущее время: 25-Июн 21:36

Часовой пояс: UTC ± 0



Вы не можете начинать темы
Вы не можете отвечать на сообщения
Вы не можете редактировать свои сообщения
Вы не можете удалять свои сообщения
Вы не можете голосовать в опросах
Вы не можете прикреплять файлы к сообщениям
Вы можете скачивать файлы