В зоне особого внимания (Андрей Малюков) [1977, боевик, приключения, SATRip] + Sub Rus

Ответить на тему
Статистика раздачи
Размер:  1,38 GB   |    Зарегистрирован:  1 месяц 6 дней   |    Скачан:  0 раз

Полного источника не было: Никогда

   
 
Автор Сообщение

edich ®

Пол: Не указан

Стаж: 1 месяц 12 дней

Сообщений: 75

Создавать темы 18-Мар-2019 09:59

[Цитировать]

В зоне особого внимания
Студия: Мосфильм
Жанр: боевик, приключения
Год выпуска: 1977
Продолжительность: 01:32:12
Режиссер: Андрей Малюков
В ролях: Борис Галкин, Михай Волонтир, Сергей Волкош, Игорь Иванов, Анатолий Кузнецов, Александр Пятков, Анатолий Веденкин, Олег Голубицкий, Владимир Заманский, Михаил Кокшенов, Юрий Чернов, Борис Бачурин, Михаил Чигарёв, Геннадий Чулков, Александр Гай (II), Иван Агафонов, Елена Кузьмина, Николай Крюков, Елена Цыплакова, Владимир Ткалич, Владимир Дашкевич, Тадеуш Касьянов, Сергей Подгорный, Владас Радвилавичюс, Витаутас Румшас, Эгле Габренайте, Ирена Леонавичюте-Браткаускене
Описание: Готовятся большие военные учения. Командир гвардейского полка направляет в тыл "врага" три развед-диверсионные группы для обнаружения и захвата замаскированного командного пункта. Срок исполнения - двое суток. Разведчики выполняют задание в условиях, максимально приближенных к бою...
Дополнительная информация:
Автор релиза -
Источник для рипа - DVB 576i TS - моя запись с канала "ТВ Центр"
Автор русских субтитров - Лахмоткина Н.М. / ТВ Центр, 2017г.




Рекламы нет!
Качество видео: SATRip
Формат видео: AVI
Видео: XviD, 704x304 (2,35:1), 25.000 fps, 1935 kbps, 0.362 bit/pixel
Аудио: Русский АС3, 48000 Гц, 2ch, 192 kbps
Формат субтитров: softsub (SRT)

MediaInfo

Общее
Полное имя : D:\В.зоне.особого.внимания.1977.SATRip-ylnian\В.зоне.особого.внимания.1977.SATRip-ylnian.avi
Формат : AVI
Формат/Информация : Audio Video Interleave
Размер файла : 1,38 Гбайт
Продолжительность : 1 ч. 32 м.
Общий поток : 2137 Кбит/сек
Программа кодирования : VirtualDubMod 1.5.10.3 | www.virtualdub-fr.org || (build 2550/release)
Библиотека кодирования : VirtualDubMod build 2550/release
Видео
Идентификатор : 0
Формат : MPEG-4 Visual
Профиль формата : Advanced Simple@L5
Настройки формата : BVOP1 / Custom Matrix
Параметр BVOP формата : 1
Параметр QPel формата : Нет
Параметр GMC формата : Без точки перехода
Параметр матрицы формата : Выборочная
Идентификатор кодека : XVID
Идентификатор кодека/Подсказка : XviD
Продолжительность : 1 ч. 32 м.
Битрейт : 1935 Кбит/сек
Ширина : 704 пикселя
Высота : 304 пикселя
Соотношение сторон : 2,35:1
Частота кадров : 25,000 кадров/сек
Цветовое пространство : YUV
Субдискретизация насыщенности : 4:2:0
Битовая глубина : 8 бит
Тип развёртки : Прогрессивная
Метод сжатия : С потерями
Бит/(Пиксели*Кадры) : 0.362
Размер потока : 1,25 Гбайт (91%)
Библиотека кодирования : XviD 67
Аудио
Идентификатор : 1
Формат : AC-3
Формат/Информация : Audio Coding 3
Коммерческое название : Dolby Digital
Идентификатор кодека : 2000
Продолжительность : 1 ч. 32 м.
Вид битрейта : Постоянный
Битрейт : 192 Кбит/сек
Каналы : 2 канала
Channel layout : L R
Частота : 48,0 КГц
Частота кадров : 31,250 кадров/сек (1536 SPF)
Битовая глубина : 16 бит
Метод сжатия : С потерями
Размер потока : 127 Мбайт (9%)
Выравнивание : Разделение по промежуткам
Продолжительность промежутка : 40 мс. (1,00 видеокадр)
Время предзагрузки промежутка : 500 мс.
ServiceKind/String : Complete Main
Общее
Полное имя : D:\В.зоне.особого.внимания.1977.SATRip-ylnian\В.зоне.особого.внимания.1977.SATRip-ylnian_rus.srt
Формат : SubRip
Размер файла : 86,5 Кбайт
Текст
Формат : SubRip
Метод сжатия : Без потерь

Сравнение

Сравнение с DVDRip - http://screenshotcomparison.com/comparison/130804/ - у моего релиза намного полнее кадр по бокам, лучше цветопередача

Если ваш рейтинг упадет ниже 0,3, вы не сможете скачивать торренты! Подробнее о рейтинге.

[cybertorrent.ru].t334.torrent 
Торрент: Зарегистрирован [ 2019-03-18 10:04 ] · D6980A94F3DF149735111055564000AFCD3EDBAD

Скачать .torrent

Скачать

14 KB

Статус: проверено
Скачан: 0 раз
Размер: 1,38 GB
terms.php
[Профиль] [ЛС]
Показать сообщения:    
Ответить на тему

Текущее время: 24-Апр 19:12

Часовой пояс: UTC ± 0



Вы не можете начинать темы
Вы не можете отвечать на сообщения
Вы не можете редактировать свои сообщения
Вы не можете удалять свои сообщения
Вы не можете голосовать в опросах
Вы не можете прикреплять файлы к сообщениям
Вы можете скачивать файлы