В поисках Немо / Finding Nemo (Эндрю Стэнтон / Andrew Stanton, Ли Анкрич / Lee Unkrich) [2003, США, мультфильм, комедия, приключения, семейный, DVDRip-AVC] [Fullscreen] Dub + Original Eng

Ответить на тему
Статистика раздачи
Размер:  1,47 GB   |    Зарегистрирован:  2 месяца 7 дней   |    Скачан:  0 раз

Полного источника не было: Никогда

   
 
Автор Сообщение

karlll ®

Пол: Не указан

Стаж: 2 месяца 13 дней

Сообщений: 100

Создавать темы 18-Мар-2019 09:58

[Цитировать]

В поисках НемоFinding NemoFullscreen- Страна: США
Жанр: мультфильм, комедия, приключения, семейный
Продолжительность: 01:40:34
Год выпуска: 2003
Перевод: Профессиональный (дублированный)
Русские субтитры: нет
Оригинальная аудиодорожка: английский
Режиссёр: Эндрю Стэнтон / Andrew Stanton, Ли Анкрич / Lee Unkrich
Роли озвучивали: Альберт Брукс, Эллен ДеДженерес, Александр Гулд, Уиллем Дефо, Эллисон Дженни, Джо Рэнфт, Джеффри Раш, Элизабет Перкинс, Эрик Бана, Эндрю Стэнтон, Брэд Гэррет, Остин Пендлтон, Стивен Рут, Викки Льюис
Описание: Среди прекрасных тропических морских стихий, в районе Большого барьерного рифа в уединении живет рыба-клоун по имени Марлин. Он растит своего единственного сыночка Немо. Океан и существующие в нем опасности очень страшат Марлина, и он как может ограждает сына от них, но молодой Немо, страдающий излишним любопытством, очень хочет разузнать побольше о таинственном рифе, рядом с которым они живут. Когда Немо по иронии судьбы оказывается вдалеке от дома, да и еще сталкивается с угрозой стать обедом рыбы-танка, Марлин отправляется на поиски сына. Но Марлин, конечно же, понимает, что героический спасатель из него не получится и просит о помощи в поисках, Дори, королевскую синюю рыбу, которая хоть и страдает от того, что почти ничего не помнит, но добрее ее не отыскать во всем безбрежном океане! Итак, наши герои отправляются в путешествие, в котором их подкарауливают многочисленные трудности и опасности…
Доп. информация: исходник взят из этой темы
Семпл

Качество: DVDRip-AVC
Формат: MKV
Видео: AVC, 720x480@540 (4:3), 23.976 fps, ~1704 kbps
Аудио: (Rus) 48 kHz, AC3, 2 ch, 192 kbps
Аудио 2: (Eng) 48 kHz, AC3, 2 ch, 192 kbps
Субтитры: отсутствуют

Подробные технические данные

x264log

Standard error stream
avs [info]: 720x480p 8:9 @ 24000/1001 fps (cfr)
x264 [info]: using SAR=8/9
x264 [info]: using cpu capabilities: MMX2 SSE2Fast LZCNT
x264 [info]: profile High, level 4.1, 4:2:0, 8-bit
x264 [info]: frame I:1000 Avg QP:18.78 size: 43921
x264 [info]: frame P:37118 Avg QP:21.46 size: 16424
x264 [info]: frame B:106535 Avg QP:23.76 size: 5929
x264 [info]: consecutive B-frames: 3.9% 4.4% 24.7% 8.9% 6.8% 49.9% 0.7% 0.3% 0.2% 0.1% 0.1% 0.3% 0.0%
x264 [info]: mb I I16..4: 7.2% 85.7% 7.0%
x264 [info]: mb P I16..4: 4.0% 21.9% 1.1% P16..4: 41.9% 14.2% 10.6% 0.3% 0.1% skip: 5.9%
x264 [info]: mb B I16..4: 0.5% 2.6% 0.2% B16..8: 40.4% 10.0% 2.4% direct: 6.3% skip:37.6% L0:43.3% L1:37.8% BI:18.9%
x264 [info]: 8x8 transform intra:81.0% inter:83.4%
x264 [info]: direct mvs spatial:92.5% temporal:7.5%
x264 [info]: coded y,uvDC,uvAC intra: 76.6% 81.8% 45.8% inter: 25.4% 29.8% 9.6%
x264 [info]: i16 v,h,dc,p: 8% 20% 8% 64%
x264 [info]: i8 v,h,dc,ddl,ddr,vr,hd,vl,hu: 9% 18% 17% 6% 8% 7% 11% 8% 14%
x264 [info]: i4 v,h,dc,ddl,ddr,vr,hd,vl,hu: 9% 18% 6% 7% 13% 11% 15% 8% 13%
x264 [info]: i8c dc,h,v,p: 33% 32% 15% 20%
x264 [info]: Weighted P-Frames: Y:3.9% UV:2.7%
x264 [info]: ref P L0: 47.4% 10.5% 13.7% 5.5% 4.7% 3.5% 3.4% 2.0% 1.9% 1.6% 1.6% 1.4% 1.4% 1.4% 0.2% 0.0%
x264 [info]: ref B L0: 75.7% 9.9% 4.3% 2.3% 1.7% 1.4% 1.2% 0.8% 0.7% 0.7% 0.6% 0.4% 0.2%
x264 [info]: ref B L1: 96.5% 3.5%
x264 [info]: kb/s:1704.19
encoded 144653 frames, 4.32 fps, 1704.19 kb/s
General
UniqueID : 181912425115404973048576797365264887767 (0x88DB0F058F4F7633AC1CB316E4DEAFD7)
Complete name : D:\В поисках Немо (2003) Fullscreen.mkv
Format : Matroska
File size : 1.47 GiB
Duration : 1h 40mn
Overall bit rate : 2 090 Kbps
Encoded date : UTC 2019-02-25 13:33:26
Writing application : mkvmerge v6.4.1 ('Omega Point') built on Sep 16 2013 22:05:10
Writing library : libebml v1.3.0 + libmatroska v1.4.1
Video
ID : 1
Format : AVC
Format/Info : Advanced Video Codec
Format profile : High@L4.1
Format settings, CABAC : Yes
Format settings, ReFrames : 14 frames
Codec ID : V_MPEG4/ISO/AVC
Duration : 1h 40mn
Bit rate : 1 704 Kbps
Width : 720 pixels
Height : 480 pixels
Display aspect ratio : 4:3
Frame rate : 23.976 fps
Standard : NTSC
Color space : YUV
Chroma subsampling : 4:2:0
Bit depth : 8 bits
Scan type : Progressive
Bits/(Pixel*Frame) : 0.206
Stream size : 1.17 GiB (80%)
Writing library : x264 core 157 r2935 545de2f
Encoding settings : cabac=1 / ref=14 / deblock=1:-1:-1 / analyse=0x3:0x133 / me=umh / subme=10 / psy=1 / psy_rd=0.60:0.00 / mixed_ref=1 / me_range=32 / chroma_me=1 / trellis=2 / 8x8dct=1 / cqm=0 / deadzone=21,11 / fast_pskip=0 / chroma_qp_offset=-2 / threads=3 / lookahead_threads=1 / sliced_threads=0 / nr=0 / decimate=0 / interlaced=0 / bluray_compat=0 / constrained_intra=0 / bframes=12 / b_pyramid=2 / b_adapt=2 / b_bias=0 / direct=3 / weightb=1 / open_gop=0 / weightp=2 / keyint=240 / keyint_min=23 / scenecut=40 / intra_refresh=0 / rc_lookahead=60 / rc=2pass / mbtree=0 / bitrate=1704 / ratetol=1.0 / qcomp=0.60 / qpmin=0 / qpmax=69 / qpstep=4 / cplxblur=20.0 / qblur=0.5 / vbv_maxrate=50000 / vbv_bufsize=62500 / nal_hrd=none / filler=0 / ip_ratio=1.40 / pb_ratio=1.30 / aq=1:0.60
Audio #1
ID : 2
Format : AC-3
Format/Info : Audio Coding 3
Mode extension : CM (complete main)
Codec ID : A_AC3
Duration : 1h 40mn
Bit rate mode : Constant
Bit rate : 192 Kbps
Channel(s) : 2 channels
Channel positions : Front: L R
Sampling rate : 48.0 KHz
Bit depth : 16 bits
Compression mode : Lossy
Stream size : 138 MiB (9%)
Language : Russian
Audio #2
ID : 3
Format : AC-3
Format/Info : Audio Coding 3
Mode extension : CM (complete main)
Codec ID : A_AC3
Duration : 1h 40mn
Bit rate mode : Constant
Bit rate : 192 Kbps
Channel(s) : 2 channels
Channel positions : Front: L R
Sampling rate : 48.0 KHz
Bit depth : 16 bits
Compression mode : Lossy
Stream size : 138 MiB (9%)
Language : English

Скриншоты

Сравнения с BDRip





[cybertorrent.ru].t335.torrent 
Торрент: Зарегистрирован [ 2019-03-18 10:04 ] · 5D785A881310EA9A628476CC35CA5B8EAFAA5476

Скачать .torrent

Скачать

15 KB

Статус: проверено
Скачан: 0 раз
Размер: 1,47 GB
terms.php
[Профиль] [ЛС]
Показать сообщения:    
Ответить на тему

Текущее время: 25-Май 15:59

Часовой пояс: UTC ± 0



Вы не можете начинать темы
Вы не можете отвечать на сообщения
Вы не можете редактировать свои сообщения
Вы не можете удалять свои сообщения
Вы не можете голосовать в опросах
Вы не можете прикреплять файлы к сообщениям
Вы можете скачивать файлы