Райские яблочки (Георгий (Егор) Щукин) [1973, драма, притча, экранизация, VHSRip]

Ответить на тему
Статистика раздачи
Размер:  2,81 GB   |    Зарегистрирован:  3 месяца 30 дней   |    Скачан:  0 раз
DL-List: Нет

Полного источника не было: Никогда

   
 
Автор Сообщение

edich ®

Пол: Не указан

Стаж: 4 месяца 5 дней

Сообщений: 97

Создавать темы 18-Мар-2019 09:58

[Цитировать]

Райские яблочки
Жанр: драма, притча, экранизация
Год выпуска: 1973
Продолжительность: 01:24:51
Режиссёр: Георгий (Егор) Щукин
В ролях: Вячеслав Шалевич, Борис Тенин, Лидия Сухаревская, Юрий Чулюкин, Леонид Сатановский, Галина Пирназарова, Александр Бачуркин, Наталья Воробьева, Юрий Волынцев, Зиновий Гердт, Рита Гладунко, Ээве Киви, Готлиб Ронинсон, Станислав Чекан, Григорий Шпигель
Описание: Политический памфлет на основе рассказа финского писателя Мартти Ларни "Сократ в Хельсинки".
Весна 1944 года. В райский уголок, который уже давно обжил философ Сократ, прибывает отстрелявшийся солдат Виттори Виртен. Философ с большим уважением отнесся к вновь прибывшему гостю, и они даже стали друзьями. Однажды отличившись перед Богом, герои получают отпуск на Землю и отправляются в путь: солдат решает навестить свою семью в Лаконии, а мудрец захотел просто посмотреть на мир - так ли он его мыслил когда-то, и решил присоединиться к солдату…
Доп. информация: Оцифровка VHS (личный архив) и получение VHSRip alenavova
Эксклюзив для rutracker.org. При размещении данного релиза на других сайтах ссылка на автора alenavova обязательна.
Релиз
Семпл: https://yadi.sk/i/8F9zc02LO_3Jbw
Качество видео: VHSRip
Формат видео: MPG
Видео: MPEG2 Video 720x576 (4:3) 25fps 4380kbps
Аудио: MPEG Audio 48000Hz stereo 256kbps

MediaInfo

Райские яблочки [by alenavova].mpg
Format : MPEG-PS
File size : 2.81 GiB
Duration : 1 h 24 min
Overall bit rate mode : Constant
Overall bit rate : 4 742 kb/s
Video
ID : 224 (0xE0)
Format : MPEG Video
Format version : Version 2
Format profile : Main@Main
Format settings : CustomMatrix / BVOP
Format settings, BVOP : Yes
Format settings, Matrix : Custom
Format settings, GOP : M=3, N=12
Format settings, picture struc : Frame
Duration : 1 h 24 min
Bit rate mode : Constant
Bit rate : 4 380 kb/s
Width : 720 pixels
Height : 576 pixels
Display aspect ratio : 4:3
Frame rate : 25.000 FPS
Standard : PAL
Color space : YUV
Chroma subsampling : 4:2:0
Bit depth : 8 bits
Scan type : Interlaced
Scan order : Top Field First
Compression mode : Lossy
Bits/(Pixel*Frame) : 0.422
Time code of first frame : 00:00:00:00
Time code source : Group of pictures header
GOP, Open/Closed : Open
GOP, Open/Closed of first fram : Closed
Stream size : 2.60 GiB (93%)
Audio
ID : 192 (0xC0)
Format : MPEG Audio
Format version : Version 1
Format profile : Layer 2
Duration : 1 h 24 min
Bit rate mode : Constant
Bit rate : 256 kb/s
Channel(s) : 2 channels
Sampling rate : 48.0 kHz
Frame rate : 41.667 FPS (1152 SPF)
Compression mode : Lossy
Stream size : 155 MiB (5%)

Скриншоты

[cybertorrent.ru].t336.torrent 
Торрент: Зарегистрирован [ 2019-03-18 10:04 ] · B3910F1C89D1B9F3FA1826F2015E048CB31BB110

Скачать .torrent

Скачать

15 KB

Статус: проверено
Скачан: 0 раз
Размер: 2,81 GB
terms.php
[Профиль] [ЛС]
Показать сообщения:    
Ответить на тему

Текущее время: 17-Июл 18:44

Часовой пояс: UTC ± 0



Вы не можете начинать темы
Вы не можете отвечать на сообщения
Вы не можете редактировать свои сообщения
Вы не можете удалять свои сообщения
Вы не можете голосовать в опросах
Вы не можете прикреплять файлы к сообщениям
Вы можете скачивать файлы