12 раундов 3: Блокировка / 12 Rounds 3: Lockdown (Стивен Рейнольдс / Stephen Reynolds) [2015, США, Боевик, HDRip] MVO (ТВ3) + Original Eng

Ответить на тему
Статистика раздачи
Размер:  1,45 GB   |    Зарегистрирован:  4 месяца 2 дня   |    Скачан:  0 раз

Полного источника не было: Никогда

   
 
Автор Сообщение

cyber ®

Пол: Не указан

Стаж: 4 месяца 8 дней

Сообщений: 119

Создавать темы 18-Мар-2019 09:58

[Цитировать]

12 раундов 3: Блокировка / 12 Rounds 3: Lockdown
Страна: США
Жанр: Боевик
Год выпуска: 2015
Продолжительность: 01:30:08
Перевод: Профессиональный (многоголосый закадровый) ТВ3
Субтитры: нет
Оригинальная аудиодорожка: английский
Режиссер: Стивен Рейнольдс / Stephen Reynolds
В ролях: Джонатан Гуд, Роджер Кросс, Дэниэл Кадмор, Локлин Манро, Тай Олссон, Сара Смит
Описание: Полицейский, который вернулся на службу оправившись от огнестрельного ранения, попадаёт опять в переплёт. Он обнаруживает улики незаконной деятельности своего бывшего партнера. Коррумпированные копы не остановятся ни перед чем, чтобы заполучить доказательства.
Сэмпл: http://multi-up.com/1224728
Качество видео: HDRip
Формат видео: AVI
Видео: MPEG4, XviD, 720x400 (16:9), 23.976 fps, 1 656 Kbps (0.240 bit/pixel)
Аудио: AC-3, 48.0 KHz, 2 ch, 192 Kbps, CBR - русский
Аудио 2: AC-3, 48.0 KHz, 6 ch, 448 Kbps, CBR - английский

MediaInfo

Общее
Полное имя : F:\12 раундов 3. Блокировка.avi
Формат : AVI
Формат/Информация : Audio Video Interleave
Размер файла : 1,45 Гбайт
Продолжительность : 1 ч. 30 м.
Общий поток : 2310 Кбит/сек
Название фильма : 12 раундов 3: Блокировка / 12 Rounds 3: Lockdown (2015)
Программа кодирования : VirtualDubMod 1.5.10.2 (build 2540/release)
Библиотека кодирования : VirtualDubMod build 2540/release
Авторское право : miha2154
Видео
Идентификатор : 0
Формат : MPEG-4 Visual
Профиль формата : Advanced Simple@L5
Настройки формата : BVOP1 / Custom Matrix
Параметр BVOP формата : 1
Параметр QPel формата : Нет
Параметр GMC формата : Без точки перехода
Параметр матрицы формата : Выборочная
Идентификатор кодека : XVID
Идентификатор кодека/Подсказка : XviD
Продолжительность : 1 ч. 30 м.
Битрейт : 1656 Кбит/сек
Ширина : 720 пикселей
Высота : 400 пикселей
Соотношение сторон : 16:9
Частота кадров : 23,976 (24000/1001) кадра/сек
Цветовое пространство : YUV
Субдискретизация насыщенности : 4:2:0
Битовая глубина : 8 бит
Тип развёртки : Прогрессивная
Метод сжатия : С потерями
Бит/(Пиксели*Кадры) : 0.240
Размер потока : 1,04 Гбайт (72%)
Библиотека кодирования : XviD 65
Аудио #1
Идентификатор : 1
Формат : AC-3
Формат/Информация : Audio Coding 3
Коммерческое название : Dolby Digital
Идентификатор кодека : 2000
Продолжительность : 1 ч. 30 м.
Вид битрейта : Постоянный
Битрейт : 192 Кбит/сек
Каналы : 2 канала
Channel layout : L R
Частота : 48,0 КГц
Частота кадров : 31,250 кадров/сек (1536 SPF)
Битовая глубина : 16 бит
Метод сжатия : С потерями
Размер потока : 124 Мбайт (8%)
Выравнивание : Разделение по промежуткам
Продолжительность промежутка : 42 мс. (1,00 видеокадр)
Время предзагрузки промежутка : 500 мс.
Заголовок : Профессиональный (многоголосый, закадровый) ТВ3
ServiceKind/String : Complete Main
Аудио #2
Идентификатор : 2
Формат : AC-3
Формат/Информация : Audio Coding 3
Коммерческое название : Dolby Digital
Идентификатор кодека : 2000
Продолжительность : 1 ч. 30 м.
Вид битрейта : Постоянный
Битрейт : 448 Кбит/сек
Каналы : 6 каналов
Channel layout : L R C LFE Ls Rs
Частота : 48,0 КГц
Частота кадров : 31,250 кадров/сек (1536 SPF)
Битовая глубина : 16 бит
Метод сжатия : С потерями
Размер потока : 289 Мбайт (19%)
Выравнивание : Разделение по промежуткам
Продолжительность промежутка : 42 мс. (1,00 видеокадр)
Время предзагрузки промежутка : 500 мс.
Заголовок : Английский
ServiceKind/String : Complete Main

Скриншот c названием фильма

Скриншоты


[cybertorrent.ru].t337.torrent 
Торрент: Зарегистрирован [ 2019-03-18 10:04 ] · 8647773ADB2FD27628B1DA5EF5E638355DA0C24E

Скачать .torrent

Скачать

15 KB

Статус: проверено
Скачан: 0 раз
Размер: 1,45 GB
terms.php
[Профиль] [ЛС]
Показать сообщения:    
Ответить на тему

Текущее время: 21-Июл 02:56

Часовой пояс: UTC ± 0



Вы не можете начинать темы
Вы не можете отвечать на сообщения
Вы не можете редактировать свои сообщения
Вы не можете удалять свои сообщения
Вы не можете голосовать в опросах
Вы не можете прикреплять файлы к сообщениям
Вы можете скачивать файлы