Омен 3: Последнее противоборство / Последний конфликт / Последнее столкновение / Последняя схватка / Omen III: The Final Conflict (Грэхэм Бэйкер / Graham Baker) [1981, США, триллер, мистика, DVDRip] AVO (Володарский) + AVO (Горчаков) + AVO (Михалев)

Ответить на тему
Статистика раздачи
Размер:  1,46 GB   |    Зарегистрирован:  1 месяц 6 дней   |    Скачан:  0 раз

Полного источника не было: Никогда

   
 
Автор Сообщение

serzh ®

Пол: Не указан

Стаж: 1 месяц 12 дней

Сообщений: 120

Создавать темы 18-Мар-2019 09:58

[Цитировать]

Последнее противоборство / Последний конфликт / Последнее столкновение / Последняя схватка / Omen III: The Final Conflict
«The ultimate confrontation between good and evil!»
Страна: США
Жанр: триллер, мистика
Год выпуска: 1981
Продолжительность: 01:43:51
Перевод: Авторский (одноголосый закадровый) Володарский
Перевод 2: Авторский (одноголосый закадровый) Горчаков
Перевод 3: Авторский (одноголосый закадровый) Михалев
Субтитры: нет
Режиссер: Грэхэм Бэйкер / Graham Baker
В ролях: Сэм Нил, Россано Брацци, Дон Гордон, Лиза Хэрроу, Барнеби Холм, Мейсон Эдамс, Роберт Арден, Люин Уиллоби, Марк Бойл
Описание: Дэмиену (Нилл) 33 года, и ему остается сделать последний шаг до самого могущественного поста на Земле - президента США. Только священник, облеченный миссией уничтожить Антихриста, стоит между ним и его дъявольским замыслом - повргнуть мир в глобальной хаос. Добру в борьбе со Злом способствует второе пришествие Спасителя. Вместе с двумя предыдущими частями этот фильм составляет одну из самых любимых зрителем трилогии ужасов. Это первый художественный фильм, снятый режиссером Грэмом Бэйкером, ветераном рекламы на британском телевидении. (c) Иванов М.
Доп. информация: Дорожки предоставил ale_x2008
Релиз
Сэмпл: https://yadi.sk/i/nfV-SLkHxDtdiw
Качество видео: DVDRip
Формат видео: AVI
Видео: 704x304 (2.32:1), 25 fps, XviD build 73 ~1418 kbps avg, 0.27 bit/pixel
Аудио: AC3 Dolby Digital, 48000Hz, 2/0 (L,R) ch (stereo), 192 kbps avg
Аудио 2: AC3 Dolby Digital, 48000Hz, 2/0 (L,R) ch (stereo), 192 kbps avg
Аудио 3: AC3 Dolby Digital, 48000Hz, 2/0 (L,R) ch (stereo), 192 kbps avg

MediaInfo

Омен III - Последний конфликт (The Final Conflict) [by ale_x2008].avi
Format : AVI
Format/Info : Audio Video Interleave
File size : 1.46 GiB
Duration : 1 h 43 min
Overall bit rate : 2 015 kb/s
Movie name : Омен III - Последний конфликт (The Final Conflict) [by ale_x2008]
Director : by ale_x2008
Writing application : VirtualDubMod 1.5.10.2 (build 2540/release)
Copyright : Edich2
Comment : Rutracker.org
Video
ID : 0
Format : MPEG-4 Visual
Format profile : Advanced Simple@L5
Format settings : BVOP1 / Custom Matrix
Format settings, BVOP : 1
Format settings, QPel : No
Format settings, GMC : No warppoints
Format settings, Matrix : Custom
Codec ID : XVID
Codec ID/Hint : XviD
Duration : 1 h 43 min
Bit rate : 1 420 kb/s
Width : 704 pixels
Height : 304 pixels
Display aspect ratio : 2.35:1
Frame rate : 25.000 FPS
Color space : YUV
Chroma subsampling : 4:2:0
Bit depth : 8 bits
Scan type : Progressive
Compression mode : Lossy
Bits/(Pixel*Frame) : 0.265
Stream size : 1.03 GiB (70%)
Writing library : XviD 73
Audio #1
ID : 1
Format : AC-3
Format/Info : Audio Coding 3
Codec ID : 2000
Duration : 1 h 43 min
Bit rate mode : Constant
Bit rate : 192 kb/s
Channel(s) : 2 channels
Channel positions : Front: L R
Sampling rate : 48.0 kHz
Frame rate : 31.250 FPS (1536 SPF)
Bit depth : 16 bits
Compression mode : Lossy
Stream size : 143 MiB (10%)
Alignment : Split accross interleaves
Interleave, duration : 40 ms (1.00 video frame)
Interleave, preload duratio : 500 ms
Service kind : Complete Main
Audio #2
ID : 2
Format : AC-3
Format/Info : Audio Coding 3
Codec ID : 2000
Duration : 1 h 43 min
Bit rate mode : Constant
Bit rate : 192 kb/s
Channel(s) : 2 channels
Channel positions : Front: L R
Sampling rate : 48.0 kHz
Frame rate : 31.250 FPS (1536 SPF)
Bit depth : 16 bits
Compression mode : Lossy
Stream size : 143 MiB (10%)
Alignment : Split accross interleaves
Interleave, duration : 40 ms (1.00 video frame)
Interleave, preload duratio : 500 ms
Service kind : Complete Main
Audio #3
ID : 3
Format : AC-3
Format/Info : Audio Coding 3
Codec ID : 2000
Duration : 1 h 43 min
Bit rate mode : Constant
Bit rate : 192 kb/s
Channel(s) : 2 channels
Channel positions : Front: L R
Sampling rate : 48.0 kHz
Frame rate : 31.250 FPS (1536 SPF)
Bit depth : 16 bits
Compression mode : Lossy
Stream size : 143 MiB (10%)
Alignment : Split accross interleaves
Interleave, duration : 40 ms (1.00 video frame)
Interleave, preload duratio : 500 ms
Service kind : Complete Main

Скриншоты


Если ваш рейтинг упадет ниже 0,3, вы не сможете скачивать торренты! Подробнее о рейтинге.

[cybertorrent.ru].t341.torrent 
Торрент: Зарегистрирован [ 2019-03-18 10:04 ] · B7373A6DCCB1A359962B6849209D34ACF02191B4

Скачать .torrent

Скачать

15 KB

Статус: проверено
Скачан: 0 раз
Размер: 1,46 GB
terms.php
[Профиль] [ЛС]
Показать сообщения:    
Ответить на тему

Текущее время: 24-Апр 18:02

Часовой пояс: UTC ± 0



Вы не можете начинать темы
Вы не можете отвечать на сообщения
Вы не можете редактировать свои сообщения
Вы не можете удалять свои сообщения
Вы не можете голосовать в опросах
Вы не можете прикреплять файлы к сообщениям
Вы можете скачивать файлы