Счастливого рождества в Париже! или Банда лесбиянок (Ольга Жукова) [1991, драма, VHSRip]

Ответить на тему
Статистика раздачи
Размер:  2,88 GB   |    Зарегистрирован:  5 месяцев 30 дней   |    Скачан:  0 раз

Полного источника не было: Никогда

   
 
Автор Сообщение

edich ®

Пол: Не указан

Стаж: 6 месяцев 5 дней

Сообщений: 173

Создавать темы 18-Мар-2019 09:58

[Цитировать]

Счастливого рождества в Париже! или Банда лесбиянок
Жанр: драма
Год выпуска: 1991
Продолжительность: 01:05:28
Режиссёр: Ольга Жукова
В ролях: Алика Смехова, Соня Клименко, Юлия Лобанова, Инна Хрулева, Владимир Толоконников, Наргиз Мамадханова, Никита Джигурда, Александр Потапов, Виктор Гордеев
Описание: Юные, обаятельные девицы - Рыжик, Черныш, Ландыш и Ирина - вымогают деньги у пожилых мужчин. В эту семью-компанию входит еще и телохранитель по кличке Бабан...
Доп. информация: Оцифровка VHS (личный архив) и получение VHSRip alenavova
Эксклюзив для rutracker.org. При размещении данного релиза на других сайтах ссылка на автора alenavova обязательна.
Релиз
Семпл: https://yadi.sk/i/b5Ge1Sg03JCIxQ
Качество видео: VHSRip
Формат видео: MPG
Видео: MPEG2 Video 720x576 (4:3) 25fps
Аудио: MPEG Audio 48000Hz stereo 192kbps

MediaInfo

Счастливого Рождества в Париже! [by alenavova].mpg
Format : MPEG-PS
File size : 2.88 GiB
Duration : 1 h 5 min
Overall bit rate mode : Variable
Overall bit rate : 6 287 kb/s
Writing library : (dvd5: Oct 27 2015)
Video
ID : 224 (0xE0)
Format : MPEG Video
Format version : Version 2
Format profile : Main@Main
Format settings : CustomMatrix / BVOP
Format settings, BVOP : Yes
Format settings, Matrix : Custom
Format settings, GOP : M=3, N=15
Duration : 1 h 5 min
Bit rate mode : Variable
Bit rate : 6 000 kb/s
Width : 720 pixels
Height : 576 pixels
Display aspect ratio : 4:3
Frame rate : 25.000 FPS
Standard : PAL
Color space : YUV
Chroma subsampling : 4:2:0
Bit depth : 8 bits
Scan type : Progressive
Compression mode : Lossy
Bits/(Pixel*Frame) : 0.579
Time code of first frame : 00:00:00:00
Time code source : Group of pictures header
GOP, Open/Closed : Open
GOP, Open/Closed of first fram : Closed
Stream size : 2.73 GiB (95%)
Writing library : (dvd5: Oct 27 2015)
Audio
ID : 192 (0xC0)
Format : MPEG Audio
Format version : Version 1
Format profile : Layer 2
Duration : 1 h 5 min
Bit rate mode : Constant
Bit rate : 192 kb/s
Channel(s) : 2 channels
Sampling rate : 48.0 kHz
Frame rate : 41.667 FPS (1152 SPF)
Compression mode : Lossy
Stream size : 89.9 MiB (3%)

Скриншоты

[cybertorrent.ru].t342.torrent 
Торрент: Зарегистрирован [ 2019-03-18 10:04 ] · A638DBD9EA3CDBA3490658C278D0AC772431A167

Скачать .torrent

Скачать

15 KB

Статус: проверено
Скачан: 0 раз
Размер: 2,88 GB
terms.php
[Профиль] [ЛС]
Показать сообщения:    
Ответить на тему

Текущее время: 17-Сен 18:57

Часовой пояс: UTC ± 0



Вы не можете начинать темы
Вы не можете отвечать на сообщения
Вы не можете редактировать свои сообщения
Вы не можете удалять свои сообщения
Вы не можете голосовать в опросах
Вы не можете прикреплять файлы к сообщениям
Вы можете скачивать файлы

Партнеры

Выражаем благодарность всем людям, внесшим вклад в наш сайт в далёком прошлом. Мы помним Вас, гордимся Вами и ждём Вас обратно!

Интересное в сети