Приключения Бакару Банзая в восьмом измерении / The Adventures of Buckaroo Banzai Across the 8th Dimension (У. Д. Рихтер / W.D. Richter) [1984, США, приключения, комедия, фантастика, BDRip] AVO (Сергей Визгунов)

Ответить на тему
Статистика раздачи
Размер:  1,47 GB   |    Зарегистрирован:  1 месяц 1 день   |    Скачан:  0 раз

Полного источника не было: Никогда

   
 
Автор Сообщение

serzh ®

Пол: Не указан

Стаж: 1 месяц 7 дней

Сообщений: 112

Создавать темы 18-Мар-2019 09:58

[Цитировать]

Приключения Бакару Банзая в восьмом измерении / The Adventures of Buckaroo Banzai Across the 8th Dimension
Страна: США
Жанр: приключения, комедия, фантастика
Год выпуска: 1984
Продолжительность: 01:42:35

Перевод: Авторский (одноголосый закадровый) Сергей Виизгунов
Субтитры: нет
Режиссер: У. Д. Рихтер / W.D. Richter
В ролях: Питер Уэллер, Джон Литгоу, Эллен Баркин, Джефф Голдблюм, Кристофер Ллойд, Льюис Смит, Розалинд Кэш, Роберт Ито, Пепе Серна
Описание: Бакару Банзай - полу-американец, полу-японец по рождению. Нейрохирург - по профессии. Звезда поп-музыки, который играет в своей рок-группе «The Hong Kong Cavaliers» - по увлечениям из разряда хобби. Испытатель по научным интересам - реактивного суперавтомобиля 'Форд Фиеста', позволяющего мчаться сквозь горы и скалы - преодолев барьер восьмого измерения. И даже ядерный физик - каким-то боком. И это все он - Бакару Банзай!.. И, когда 'Черные Лектоиды с планеты 10', случайно освобожденные им из заточения в скале, грозятся уничтожить нашу Землю (а начать, между прочим, хотят с нашего города Смоленска), то сам же Бакару и вступает в единоборство с Доктором Лизардо, автором всех напастей....
Доп. информация: Выражаю огромную благодарность Нордеру за синхронизацию дорожки с Визгуновым. За дорогу благодарим m.mamichev

Сэмпл: http://multi-up.com/1224891
Качество видео: BDRip (Исходник BDRemux 1080p)
Формат видео: AVI
Видео: XviD 73, 720x304, (2,35:1), 23,976 fps, 1597 Кбит/с, 8 бит, 0.30 bit/pixel
Аудио: Русский (АС3, 6 ch (Front: L C R, Side: L R, LFE), 48,0 KHz, 448 Kbps)

MediaInfo

Общее
Полное имя : D:\Фильмы на трекер\Приключения Бакару Банзая в восьмом измерении (приключения, комедия 1984 год).avi
Формат : AVI
Формат/Информация : Audio Video Interleave
Размер файла : 1,47 Гбайт
Продолжительность : 1 ч. 42 м.
Общий поток : 2054 Кбит/сек
Программа кодирования : VirtualDubMod 1.5.10.2 (build 2540/release)
Библиотека кодирования : VirtualDubMod build 2540/release
Видео
Идентификатор : 0
Формат : MPEG-4 Visual
Профиль формата : Advanced Simple@L5
Параметр BVOP формата : 2
Параметр QPel формата : Нет
Параметр GMC формата : Без точки перехода
Параметр матрицы формата : Выборочная
Идентификатор кодека : XVID
Идентификатор кодека/Подсказка : XviD
Продолжительность : 1 ч. 42 м.
Битрейт : 1597 Кбит/сек
Ширина : 720 пикселей
Высота : 304 пикселя
Соотношение сторон : 2,35:1
Частота кадров : 23,976 (23976/1000) кадра/сек
Цветовое пространство : YUV
Субдискретизация насыщенности : 4:2:0
Битовая глубина : 8 бит
Тип развёртки : Прогрессивная
Метод сжатия : С потерями
Бит/(Пиксели*Кадры) : 0.304
Размер потока : 1,14 Гбайт (78%)
Библиотека кодирования : XviD 73
Аудио
Идентификатор : 1
Формат : AC-3
Формат/Информация : Audio Coding 3
Расширение режима : CM (complete main)
Параметр Endianness формата : Big
Идентификатор кодека : 2000
Продолжительность : 1 ч. 42 м.
Вид битрейта : Постоянный
Битрейт : 448 Кбит/сек
Каналы : 6 каналов
Расположение каналов : Front: L C R, Side: L R, LFE
Частота : 48,0 КГц
Частота кадров : 31,250 кадров/сек (1536 spf)
Метод сжатия : С потерями
Размер потока : 329 Мбайт (22%)
Выравнивание : Разделение по промежуткам
Продолжительность промежутка : 42 мс. (1,00 видеокадр)
Время предзагрузки промежутка : 500 мс.

Скриншот c названием фильма

Скриншоты

Если ваш рейтинг упадет ниже 0,3, вы не сможете скачивать торренты! Подробнее о рейтинге.

[cybertorrent.ru].t344.torrent 
Торрент: Зарегистрирован [ 2019-03-18 10:04 ] · 2CA2CF74F89D60303663A9171BC032B28EFFE24F

Скачать .torrent

Скачать

15 KB

Статус: проверено
Скачан: 0 раз
Размер: 1,47 GB
terms.php
[Профиль] [ЛС]
Показать сообщения:    
Ответить на тему

Текущее время: 20-Апр 00:12

Часовой пояс: UTC ± 0



Вы не можете начинать темы
Вы не можете отвечать на сообщения
Вы не можете редактировать свои сообщения
Вы не можете удалять свои сообщения
Вы не можете голосовать в опросах
Вы не можете прикреплять файлы к сообщениям
Вы можете скачивать файлы