Приключения Форда Ферлейна / The Adventures of Ford Fairlane (Ренни Харлин / Renny Harlin) [1990, США, боевик, комедия, криминал, детектив, приключения, HDRip-AVC] MVO (ОРТ) + AVO (Андрей Гаврилов)

Ответить на тему
Статистика раздачи
Размер:  2,19 GB   |    Зарегистрирован:  5 месяцев   |    Скачан:  0 раз

Полного источника не было: Никогда

   
 
Автор Сообщение

serzh ®

Пол: Не указан

Стаж: 5 месяцев 6 дней

Сообщений: 348

Создавать темы 18-Мар-2019 09:58

[Цитировать]

Приключения Форда Ферлейна / The Adventures of Ford Fairlane
Страна: США
Жанр: боевик, комедия, криминал, детектив, приключения
Год выпуска: 1990
Продолжительность: 01:41:49
Перевод 1: Профессиональный (многоголосый закадровый) ОРТ
Перевод 2: Авторский (одноголосый закадровый) Андрей Гаврилов
Субтитры: нет
Режиссер: Ренни Харлин / Renny Harlin
В ролях: Эндрю Дайс Клэй, Уэйн Ньютон, Присцилла Пресли, Моррис Дэй, Лорен Холли, Мэдди Кормэн, Гилберт Готтфрид, Дэвид Патрик Келли, Брэндон Колл, Роберт Инглунд...
Описание: Форд Ферлейн — частный сыщик, которого все называют «детективом рок-н-ролла». Однажды к нему обращается старый приятель, радио-диджей Джонни Кранч с просьбой отыскать пропавшую сестру по имени Зу-зу Пестик.
Однако, в этот же день Джонни убивают прямо в студии во время эфира. А несколько дней спустя к Ферлейну приходит статная красивая дама и предлагает хорошие деньги, если он отыщет ее сестру — Зу-зу Пестик. Форд решает разобраться в этом полном загадок и интриг деле…
Доп. информация: Перевод Гаврилова с раздачи _int_. Перевод ОРТ с раздачи formally. Синхронизация звука - Dreven.
Сэмпл: http://sendfile.su/1478331
Качество видео: HDRip-AVC Исходник The.Adventures.of.Ford.Fairlane.1990.1080p.BluRay.X264-AMIABLE
Формат видео: MKV
Видео: 1072x456 (2.35:1), 23.976 fps, AVC, ~2692 Kbps, 0.230 bits/pixel
Аудио 1: Russian, 48.0 KHz, AC3, 2 ch, 192 Kbps - ОРТ
Аудио 2: Russian, 48.0 KHz, AC3, 2 ch, 192 Kbps - Андрей Гаврилов

Log

avs4x26x.exe: -L x264_64.exe --pass 2 --bitrate 2692 --preset medium --tune film --level 4.1 --ref 9 --merange 32 --bframes 10 --direct auto --b-adapt 2 --trellis 2 --no-fast-pskip --no-dct-decimate --psy-rd 1.00:0.20 --subme 10 --me umh --no-mbtree --vbv-bufsize 62500 --vbv-maxrate 50000 --partitions p8x8,b8x8,i4x4,i8x8 --sar 1:1 --stats
raw [info]: 1072x456p 1:1 @ 24000/1001 fps (cfr)
x264 [info]: using SAR=1/1
x264 [info]: using cpu capabilities: MMX2 SSE2Fast LZCNT
x264 [info]: profile High, level 4.1, 4:2:0, 8-bit
x264 [info]: frame I:955 Avg QP:19.22 size: 63733
x264 [info]: frame P:32538 Avg QP:22.06 size: 27025
x264 [info]: frame B:112979 Avg QP:23.65 size: 9852
x264 [info]: consecutive B-frames: 1.8% 2.6% 7.4% 28.1% 18.4% 31.6% 5.4% 2.8% 1.0% 0.6% 0.3%
x264 [info]: mb I I16..4: 13.8% 72.2% 13.9%
x264 [info]: mb P I16..4: 0.8% 19.3% 1.5% P16..4: 37.6% 26.4% 11.2% 0.0% 0.0% skip: 3.3%
x264 [info]: mb B I16..4: 0.0% 1.2% 0.1% B16..8: 48.2% 13.1% 3.5% direct: 7.2% skip:26.7% L0:45.7% L1:47.4% BI: 6.9%
x264 [info]: 8x8 transform intra:87.2% inter:64.6%
x264 [info]: direct mvs spatial:98.5% temporal:1.5%
x264 [info]: coded y,uvDC,uvAC intra: 94.3% 69.4% 25.2% inter: 36.5% 23.2% 2.6%
x264 [info]: i16 v,h,dc,p: 19% 15% 27% 38%
x264 [info]: i8 v,h,dc,ddl,ddr,vr,hd,vl,hu: 11% 6% 9% 10% 14% 13% 13% 11% 12%
x264 [info]: i4 v,h,dc,ddl,ddr,vr,hd,vl,hu: 13% 8% 3% 9% 15% 15% 14% 12% 13%
x264 [info]: i8c dc,h,v,p: 35% 29% 21% 15%
x264 [info]: Weighted P-Frames: Y:5.4% UV:2.6%
x264 [info]: ref P L0: 43.1% 12.3% 18.6% 6.6% 6.4% 4.0% 4.2% 2.1% 2.5% 0.2% 0.0%
x264 [info]: ref B L0: 69.8% 12.6% 6.9% 3.8% 2.7% 2.4% 1.4% 0.5%
x264 [info]: ref B L1: 94.3% 5.7%
x264 [info]: kb/s:2688.87
x264 [total]: encoded 146472 frames, 7.88 fps, 2688.88 kb/s

MediaInfo

General
Unique ID : 285928900387367871920982877506779324531 (0xD71BE73303CC969C6F3ADD12120DA073)
Complete name : C:\The Adventures of Ford Fairlane.mkv
Format : Matroska
Format version : Version 4 / Version 2
File size : 2.19 GiB
Duration : 1 h 41 min
Overall bit rate : 3 075 kb/s
Encoded date : UTC 2019-02-25 14:17:18
Writing application : mkvmerge v30.1.0 ('Forever And More') 64-bit
Writing library : libebml v1.3.6 + libmatroska v1.4.9
Video
ID : 1
Format : AVC
Format/Info : Advanced Video Codec
Format profile : High@L4.1
Format settings : CABAC / 9 Ref Frames
Format settings, CABAC : Yes
Format settings, ReFrames : 9 frames
Codec ID : V_MPEG4/ISO/AVC
Duration : 1 h 41 min
Bit rate : 2 692 kb/s
Width : 1 072 pixels
Height : 456 pixels
Display aspect ratio : 2.35:1
Frame rate mode : Constant
Frame rate : 23.976 (24000/1001) FPS
Color space : YUV
Chroma subsampling : 4:2:0
Bit depth : 8 bits
Scan type : Progressive
Bits/(Pixel*Frame) : 0.230
Stream size : 1.91 GiB (87%)
Writing library : x264 core 157 r2935 545de2f
Encoding settings : cabac=1 / ref=9 / deblock=1:-1:-1 / analyse=0x3:0x113 / me=umh / subme=10 / psy=1 / psy_rd=1.00:0.20 / mixed_ref=1 / me_range=32 / chroma_me=1 / trellis=2 / 8x8dct=1 / cqm=0 / deadzone=21,11 / fast_pskip=0 / chroma_qp_offset=-3 / threads=6 / lookahead_threads=1 / sliced_threads=0 / nr=0 / decimate=0 / interlaced=0 / bluray_compat=0 / constrained_intra=0 / bframes=10 / b_pyramid=2 / b_adapt=2 / b_bias=0 / direct=3 / weightb=1 / open_gop=0 / weightp=2 / keyint=250 / keyint_min=23 / scenecut=40 / intra_refresh=0 / rc_lookahead=40 / rc=2pass / mbtree=0 / bitrate=2692 / ratetol=1.0 / qcomp=0.60 / qpmin=0 / qpmax=69 / qpstep=4 / cplxblur=20.0 / qblur=0.5 / vbv_maxrate=50000 / vbv_bufsize=62500 / nal_hrd=none / filler=0 / ip_ratio=1.40 / pb_ratio=1.30 / aq=1:1.00
Language : English
Default : Yes
Forced : No
Audio #1
ID : 2
Format : AC-3
Format/Info : Audio Coding 3
Commercial name : Dolby Digital
Codec ID : A_AC3
Duration : 1 h 41 min
Bit rate mode : Constant
Bit rate : 192 kb/s
Channel(s) : 2 channels
Channel layout : L R
Sampling rate : 48.0 kHz
Frame rate : 31.250 FPS (1536 SPF)
Bit depth : 16 bits
Compression mode : Lossy
Stream size : 140 MiB (6%)
Title : ОРТ
Language : Russian
Service kind : Complete Main
Default : Yes
Forced : No
Audio #2
ID : 3
Format : AC-3
Format/Info : Audio Coding 3
Commercial name : Dolby Digital
Codec ID : A_AC3
Duration : 1 h 41 min
Bit rate mode : Constant
Bit rate : 192 kb/s
Channel(s) : 2 channels
Channel layout : L R
Sampling rate : 48.0 kHz
Frame rate : 31.250 FPS (1536 SPF)
Bit depth : 16 bits
Compression mode : Lossy
Stream size : 140 MiB (6%)
Title : Андрей Гаврилов
Language : Russian
Service kind : Complete Main
Default : No
Forced : No
Menu
00:00:00.000 : en:00:00:00.000
00:09:34.282 : en:00:09:34.282
00:19:11.359 : en:00:19:11.359
00:29:13.752 : en:00:29:13.752
00:42:08.234 : en:00:42:08.234
00:50:12.843 : en:00:50:12.843
01:02:23.448 : en:01:02:23.448
01:09:51.396 : en:01:09:51.396
01:20:14.476 : en:01:20:14.476
01:30:19.289 : en:01:30:19.289
01:36:58.438 : en:01:36:58.438

Скриншоты

[cybertorrent.ru].t345.torrent 
Торрент: Зарегистрирован [ 2019-03-18 10:04 ] · 9B002FD1E6A02A8957A1A895810CCD28D7CFFF3E

Скачать .torrent

Скачать

11 KB

Статус: проверено
Скачан: 0 раз
Размер: 2,19 GB
terms.php
[Профиль] [ЛС]
Показать сообщения:    
Ответить на тему

Текущее время: 19-Авг 00:23

Часовой пояс: UTC ± 0



Вы не можете начинать темы
Вы не можете отвечать на сообщения
Вы не можете редактировать свои сообщения
Вы не можете удалять свои сообщения
Вы не можете голосовать в опросах
Вы не можете прикреплять файлы к сообщениям
Вы можете скачивать файлы