В зоне особого внимания (Андрей Малюков) [1977, боевик, приключения, DVB] + Sub Rus

Ответить на тему
Статистика раздачи
Размер:  1,82 GB   |    Зарегистрирован:  5 месяцев 1 день   |    Скачан:  0 раз

Полного источника не было: Никогда

   
 
Автор Сообщение

edich ®

Пол: Не указан

Стаж: 5 месяцев 7 дней

Сообщений: 159

Создавать темы 18-Мар-2019 09:58

[Цитировать]

В зоне особого внимания
Студия: Мосфильм
Жанр: боевик, приключения
Год выпуска: 1977
Продолжительность: 01:32:12
Режиссер: Андрей Малюков
В ролях: Борис Галкин, Михай Волонтир, Сергей Волкош, Игорь Иванов, Анатолий Кузнецов, Александр Пятков, Анатолий Веденкин, Олег Голубицкий, Владимир Заманский, Михаил Кокшенов, Юрий Чернов, Борис Бачурин, Михаил Чигарёв, Геннадий Чулков, Александр Гай (II), Иван Агафонов, Елена Кузьмина, Николай Крюков, Елена Цыплакова, Владимир Ткалич, Владимир Дашкевич, Тадеуш Касьянов, Сергей Подгорный, Владас Радвилавичюс, Витаутас Румшас, Эгле Габренайте, Ирена Леонавичюте-Браткаускене
Описание: Готовятся большие военные учения. Командир гвардейского полка направляет в тыл "врага" три развед-диверсионные группы для обнаружения и захвата замаскированного командного пункта. Срок исполнения - двое суток. Разведчики выполняют задание в условиях, максимально приближенных к бою...
Дополнительная информация:
Автор релиза -
Источник - DVB 576i TS - моя запись с канала "ТВ Центр"
Автор русских субтитров - Лахмоткина Н.М. / ТВ Центр, 2017г.




Рекламы нет!
Качество видео: DVB
Формат видео: MKV
Видео: MPEG-4, 720x576@1024х576 (16:9), 25.000 fps, 2581 kbps, 0.249 bit/pixel
Аудио: Русский MP2, 48000 Гц, 2ch, 192 kbps
Формат субтитров: softsub (SRT)

MediaInfo

Общее
Уникальный идентификатор : 195187837590062483013752570430206606874 (0x92D7CF63FDA8C40BAD2084911EE17E1A)
Полное имя : D:\В.зоне.особого.внимания.1977.DVB.576i-ylnian.mkv
Формат : Matroska
Версия формата : Version 2
Размер файла : 1,82 Гбайт
Продолжительность : 1 ч. 32 м.
Общий поток : 2830 Кбит/сек
Дата кодирования : UTC 2019-02-21 16:14:24
Программа кодирования : mkvmerge v5.8.0 ('No Sleep / Pillow') built on Sep 2 2012 15:37:04
Библиотека кодирования : libebml v1.2.3 + libmatroska v1.3.0
Видео
Идентификатор : 1
Формат : AVC
Формат/Информация : Advanced Video Codec
Профиль формата : Main@L3
Настройки формата : CABAC / 3 Ref Frames
Параметр CABAC формата : Да
Параметр RefFrames формата : 3 кадра
Параметр GOP формата : M=4, N=28
Идентификатор кодека : V_MPEG4/ISO/AVC
Битрейт : 2581 Кбит/сек
Ширина : 720 пикселей
Высота : 576 пикселей
Соотношение сторон : 16:9
Режим частоты кадров : Постоянный
Частота кадров в оригинале : 25,000 кадров/сек
Стандарт вещания : Component
Цветовое пространство : YUV
Субдискретизация насыщенности : 4:2:0
Битовая глубина : 8 бит
Тип развёртки : Чересстрочная
Метод сохранения типа развёртки : Раздельные поля
Порядок развёртки : Верхнее поле первое
Бит/(Пиксели*Кадры) : 0.249
Размер потока : 1,65 Гбайт (91%)
Язык : Russian
Default : Да
Forced : Да
Цветовой диапазон : Limited
Основные цвета : BT.601 PAL
Характеристики трансфера : BT.470 System B/G
Коэффициенты матрицы : BT.470 System B/G
Аудио
Идентификатор : 2
Формат : MPEG Audio
Версия формата : Version 1
Профиль формата : Layer 2
Идентификатор кодека : A_MPEG/L2
Идентификатор кодека/Подсказка : MP2
Продолжительность : 1 ч. 32 м.
Вид битрейта : Постоянный
Битрейт : 192 Кбит/сек
Каналы : 2 канала
Частота : 48,0 КГц
Метод сжатия : С потерями
Размер потока : 127 Мбайт (7%)
Язык : Russian
Default : Да
Forced : Да
Текст
Идентификатор : 3
Формат : UTF-8
Идентификатор кодека : S_TEXT/UTF8
Идентификатор кодека/Информация : UTF-8 Plain Text
Язык : Russian
Default : Нет
Forced : Нет

Сравнение

Сравнение с DVD-5 от КП - http://screenshotcomparison.com/comparison/130801/ - у моего релиза намного полнее кадр по бокам, лучше цветопередача
Сравнение с немецким DVD-9 - http://screenshotcomparison.com/comparison/130800/ - у моего релиза намного полнее кадр по бокам, лучше цветопередача
Сравнение с чешским DVD-9 - http://screenshotcomparison.com/comparison/130799/ - у моего релиза намного полнее кадр по бокам, лучше цветопередача
[cybertorrent.ru].t347.torrent 
Торрент: Зарегистрирован [ 2019-03-18 10:04 ] · 69690F13DBDC207DFABDF68DF644D7FACA7B59BB

Скачать .torrent

Скачать

19 KB

Статус: проверено
Скачан: 0 раз
Размер: 1,82 GB
terms.php
[Профиль] [ЛС]
Показать сообщения:    
Ответить на тему

Текущее время: 19-Авг 19:25

Часовой пояс: UTC ± 0



Вы не можете начинать темы
Вы не можете отвечать на сообщения
Вы не можете редактировать свои сообщения
Вы не можете удалять свои сообщения
Вы не можете голосовать в опросах
Вы не можете прикреплять файлы к сообщениям
Вы можете скачивать файлы