Мужчина с гарантией (Артем Аксененко) [2012, комедия, семейный, BDRip]

Ответить на тему
Статистика раздачи
Размер:  744 MB   |    Зарегистрирован:  5 месяцев   |    Скачан:  0 раз

Полного источника не было: Никогда

   
 
Автор Сообщение

Rodin ®

Пол: Не указан

Стаж: 5 месяцев 6 дней

Сообщений: 226

Создавать темы 18-Мар-2019 09:58

[Цитировать]

Мужчина с гарантией
Год выпуска: 2012
Жанр: комедия, семейный
Продолжительность: 01:24:11.095 (121105 frames)
Субтитры: нет
Режиссер: Артем Аксененко
В ролях: Александр Олешко, Нонна Гришаева, Петр Федоров, Дмитрий Нагиев, Юлия Гришина, Дмитрий Шаракоис, Михаил Павлик, Сергей Походаев, Ольга Волкова, Андрей Федорцов, Екатерина Тимофеева, Юрий Никулин мл., Евгений Шиманович
Описание: В одном большом и любимом горожанами торговом центре работает охранником необычный человек. Он помогает всем вокруг: продавцам общепита и модной одежды, уборщикам и барменам в кафетерии. Он знает всё и всех, и все знают и любят его! Он словно домовой в этом огромном здании с миллионом неоновых вывесок и ярких стеклянных витрин. Ведь здесь он не только работает, но и живет полноценной жизнью — бесплатно одевается, питается в ресторанах, спит в мебельном отделе и участвует в ночных гонках на полотерах. «Какой странный персонаж!» — подумаете вы. На самом деле, у нашего героя есть хрустальная и загадочная мечта, на осуществление которой он старательно копит деньги на «зарплатной» банковской карте. Однажды в его жизни появляется стажерка, которую необходимо обучить всему, что умеет он сам. Отношения, начавшиеся как обременительная обязанность, постепенно начинают перерастать дружеские. Ну а дружба между мужчиной и женщиной вещь весьма специфическая, тут и до романтики недалеко! Однако, герой не знает одной важной детали: эта его «коллега» — владелица всего торгового центра.
Качество: BDRip
Формат: AVI
Видео кодек: XviD
Аудио кодек: МР3
Видео: 688x288 (2.39:1), 23.976 fps, XviD build 73 ~1097 kbps avg, 0.23 bit/pixel
Аудио: 48 kHz, MPEG Layer 3, 2 ch, ~128.00 kbps avg

Скриншоты

Медиаинфо

General
Complete name : E:\004 Мои раздачи\Мужчина с гарантией 745\muzhchina_s_garantiei_745_by_bm11.avi
Format : AVI
Format/Info : Audio Video Interleave
File size : 744 MiB
Duration : 1h 24mn
Overall bit rate : 1 235 Kbps
Director : bm11
Writing application : VirtualDubMod 1.5.10.3 | www.virtualdub-fr.org || (build 2550/release)
Video
ID : 0
Format : MPEG-4 Visual
Format profile : Advanced Simple@L5
Format settings, BVOP : 1
Format settings, QPel : No
Format settings, GMC : No warppoints
Format settings, Matrix : Custom
Codec ID : XVID
Codec ID/Hint : XviD
Duration : 1h 24mn
Bit rate : 1 098 Kbps
Width : 688 pixels
Height : 288 pixels
Display aspect ratio : 2.40:1
Frame rate : 23.976 (23976/1000) fps
Color space : YUV
Chroma subsampling : 4:2:0
Bit depth : 8 bits
Scan type : Progressive
Compression mode : Lossy
Bits/(Pixel*Frame) : 0.231
Stream size : 661 MiB (89%)
Writing library : XviD 73
Audio
ID : 1
Format : MPEG Audio
Format version : Version 1
Format profile : Layer 3
Codec ID : 55
Codec ID/Hint : MP3
Duration : 1h 24mn
Bit rate mode : Constant
Bit rate : 128 Kbps
Channel(s) : 2 channels
Sampling rate : 48.0 KHz
Compression mode : Lossy
Stream size : 77.1 MiB (10%)
Alignment : Aligned on interleaves
Interleave, duration : 42 ms (1.00 video frame)
Interleave, preload duratio : 504 ms
Writing library : LAME3.99r
Encoding settings : -m s -V 4 -q 2 -lowpass 17 -b 128
[cybertorrent.ru].t348.torrent 
Торрент: Зарегистрирован [ 2019-03-18 10:04 ] · B4D8EABAAB6AF0CE53016D45E92F482B8DE3FE71

Скачать .torrent

Скачать

15 KB

Статус: проверено
Скачан: 0 раз
Размер: 744 MB
terms.php
[Профиль] [ЛС]
Показать сообщения:    
Ответить на тему

Текущее время: 18-Авг 23:52

Часовой пояс: UTC ± 0



Вы не можете начинать темы
Вы не можете отвечать на сообщения
Вы не можете редактировать свои сообщения
Вы не можете удалять свои сообщения
Вы не можете голосовать в опросах
Вы не можете прикреплять файлы к сообщениям
Вы можете скачивать файлы