Пираты Карибского моря: На странных берегах / Пираты Карибского моря: На волнах чужих приливов / Pirates of the Caribbean: On Stranger Tides (Роб Маршалл / Rob Marshall) [2011, США, боевик, комедия, приключения, BDRip] AVO (Юрий Сербин)

Ответить на тему
Статистика раздачи
Размер:  2,11 GB   |    Зарегистрирован:  3 месяца 7 дней   |    Скачан:  0 раз

Полного источника не было: Никогда

   
 
Автор Сообщение

cyber ®

Пол: Не указан

Стаж: 3 месяца 13 дней

Сообщений: 94

Создавать темы 18-Мар-2019 09:58

[Цитировать]

Пираты Карибского моря: На странных берегах / Пираты Карибского моря: На волнах чужих приливов / Pirates of the Caribbean: On Stranger Tides
Страна: США
Жанр: боевик, комедия, приключения
Год выпуска: 2011
Продолжительность: 02:16:23
Перевод: Авторский (одноголосый закадровый) Юрий Сербин
Субтитры: нет
Режиссер: Роб Маршалл / Rob Marshall
В ролях: Джонни Депп, Пенелопа Крус, Джеффри Раш, Иэн МакШейн, Кевин МакНэлли, Стивен Грэм, Сэм Клафлин, Кит Ричардс, Ричард Гриффит
Описание: В центре сюжета – новые приключения харизматичного и обаятельного Джека Воробья. На этот раз герой отправляется в Лондон, чтобы спасти своего приятеля Гиббса от виселицы, но после неудачного побега оба оказываются в тюрьме.Вскоре Джек удостаивается аудиенции короля Георга II, который в обмен на свободу предлагает герою участвовать в поиске знаменитого Источника молодости. По слухам, тот, кто выпьет из него полную чашу, станет бессмертным и вечно молодым. Джек с радостью принимает предложение, не зная, что экспедицию возглавит его заклятый враг – капитан Барбосса...

Сэмпл: https://yadi.sk/i/Xs-ka9WV1vsN4Q
Качество видео: BDRip (Исходник Blu-ray disc 1080p)
Формат видео: AVI
Видео: XviD, 720x304, (2,35:1), 23,976 fps, 1758 Кбит/с, 8 бит, 0.33 bit/pixel
Аудио: Русский (АС3, 6 ch (Front: L C R, Side: L R, LFE), 48,0 KHz, 448 Kbps)

MediaInfo

Общее
Полное имя : D:\Фильмы на трекер\Пираты Карибского моря На странных берегах (боевик, приключения 2011 год).avi
Формат : AVI
Формат/Информация : Audio Video Interleave
Профиль формата : OpenDML
Размер файла : 2,11 Гбайт
Продолжительность : 2 ч. 16 м.
Общий поток : 2218 Кбит/сек
Программа кодирования : VirtualDubMod 1.5.10.2 (build 2540/release)
Библиотека кодирования : VirtualDubMod build 2540/release
Видео
Идентификатор : 0
Формат : MPEG-4 Visual
Профиль формата : Advanced Simple@L5
Параметр BVOP формата : 2
Параметр QPel формата : Нет
Параметр GMC формата : Без точки перехода
Параметр матрицы формата : Выборочная
Идентификатор кодека : XVID
Идентификатор кодека/Подсказка : XviD
Продолжительность : 2 ч. 16 м.
Битрейт : 1758 Кбит/сек
Ширина : 720 пикселей
Высота : 304 пикселя
Соотношение сторон : 2,35:1
Частота кадров : 23,976 (23976/1000) кадра/сек
Цветовое пространство : YUV
Субдискретизация насыщенности : 4:2:0
Битовая глубина : 8 бит
Тип развёртки : Прогрессивная
Метод сжатия : С потерями
Бит/(Пиксели*Кадры) : 0.335
Размер потока : 1,68 Гбайт (79%)
Библиотека кодирования : XviD 58
Аудио
Идентификатор : 1
Формат : AC-3
Формат/Информация : Audio Coding 3
Расширение режима : CM (complete main)
Параметр Endianness формата : Big
Идентификатор кодека : 2000
Продолжительность : 2 ч. 16 м.
Вид битрейта : Постоянный
Битрейт : 448 Кбит/сек
Каналы : 6 каналов
Расположение каналов : Front: L C R, Side: L R, LFE
Частота : 48,0 КГц
Частота кадров : 31,250 кадров/сек (1536 spf)
Метод сжатия : С потерями
Размер потока : 437 Мбайт (20%)
Выравнивание : Разделение по промежуткам
Продолжительность промежутка : 42 мс. (1,00 видеокадр)
Время предзагрузки промежутка : 500 мс.

Скриншот c названием фильма

Скриншоты

[cybertorrent.ru].t353.torrent 
Торрент: Зарегистрирован [ 2019-03-18 10:04 ] · FFDB8F6227252B63833830CA71823E483E385760

Скачать .torrent

Скачать

11 KB

Статус: проверено
Скачан: 0 раз
Размер: 2,11 GB
terms.php
[Профиль] [ЛС]
Показать сообщения:    
Ответить на тему

Текущее время: 25-Июн 21:36

Часовой пояс: UTC ± 0



Вы не можете начинать темы
Вы не можете отвечать на сообщения
Вы не можете редактировать свои сообщения
Вы не можете удалять свои сообщения
Вы не можете голосовать в опросах
Вы не можете прикреплять файлы к сообщениям
Вы можете скачивать файлы