Батальон / Серии: 1-4 из 4 (Алексей Быстрицкий) [2018, детектив, криминал, боевик, WEBRip 720p]

Ответить на тему
Статистика раздачи
Размер:  5,73 GB   |    Зарегистрирован:  2 месяца 9 дней   |    Скачан:  0 раз
Сидов:  13  [  0 KB/s  ]  
   
 
Автор Сообщение

sss777sss ®

Пол: Не указан

Стаж: 5 месяцев 7 дней

Сообщений: 402

Создавать темы 10-Июн-2019 15:39

[Цитировать]

Батальон
Год выпуска: 2018
Производство: IKa Film, Киностудия КИТ
Жанр: военный, боевик, драма, история
Продолжительность: ~00:48:00 серия
Субтитры: нет
Режиссёр: Алексей Быстрицкий
В ролях: Максим Щёголев, Александр Бухаров, Михаил Бабичев, Полина Ястребова, Пьер Бурель, Александр Замураев, Андрей Стоянов, Пётр Королёв , Илья Волков, Глеб Гервассиев, Антон Багмет, Виталий Кондрашов, Павел Юдин, Зепюр Брутян
Описание: Действие фильма развернётся в 1999 году, когда Югославия находилась на пике распада. Война, голод, разруха и мародёрство. Албанское население хочет навсегда избавить свою землю от сербов. Аэропорт города Приштина – важный стратегический объект, и если его займёт Армия освобождения Косово во главе с Брахимом (Михаил Бабичев), то местные албанцы устроят настоящий геноцид сербского народа. Командование России принимает решение захватить аэропорт первыми. Для того, чтобы удержать аэропорт до прихода батальона и не допустить передачу оружия и техники косовским боевикам, на объект отправляют группу спецназовцев ГРУ.

Реклама: Нет.
Кинопоиск
Все раздачи сериала
Sample
Качество: WEBRip 720p - ExKinoRay
Формат: MKV
Видео кодек: H.264
Аудио кодек: AC3
Видео: MPEG4 AVC Video, H264, 1280x536, 25 fps, ~4000 kbps, 0.233 bit/pixel
Аудио: AC3 Dolby Digital, 48.0 kHz, 2/0 (L,R) ch, 192 kbps

MI

General
Unique ID : 234437203587650820124039858482065166899 (0xB05EF68A3BF3DCD5B5798C5BB7B7D233)
Complete name : D:\Batalon.2018.WEB-DLRip.(720p).ExKinoRay\Batalon.(01.seriya.iz.04).2018.WEB-DLRip.(720p).ExKinoRay.mkv
Format : Matroska
Format version : Version 4 / Version 2
File size : 1.38 GiB
Duration : 47 min 15 s
Overall bit rate : 4 192 kb/s
Encoded date : UTC 2019-06-09 06:32:26
Writing application : mkvmerge v7.8.0 ('River Man') 32bit built on Mar 27 2015 16:18:02
Writing library : libebml v1.3.1 + libmatroska v1.4.2
Video
ID : 1
Format : AVC
Format/Info : Advanced Video Codec
Format profile : High@L4.1
Format settings : CABAC / 9 Ref Frames
Format settings, CABAC : Yes
Format settings, ReFrames : 9 frames
Codec ID : V_MPEG4/ISO/AVC
Duration : 47 min 15 s
Bit rate : 4 000 kb/s
Width : 1 280 pixels
Height : 536 pixels
Display aspect ratio : 2.40:1
Frame rate mode : Constant
Frame rate : 25.000 FPS
Color space : YUV
Chroma subsampling : 4:2:0
Bit depth : 8 bits
Scan type : Progressive
Bits/(Pixel*Frame) : 0.233
Stream size : 1.32 GiB (95%)
Writing library : x264 core 146 r2538 121396c
Encoding settings : cabac=1 / ref=9 / deblock=1:-3:-3 / analyse=0x3:0x133 / me=umh / subme=10 / psy=1 / psy_rd=1.00:0.20 / mixed_ref=1 / me_range=32 / chroma_me=1 / trellis=2 / 8x8dct=1 / cqm=0 / deadzone=21,11 / fast_pskip=1 / chroma_qp_offset=-3 / threads=12 / lookahead_threads=8 / sliced_threads=0 / nr=0 / decimate=1 / interlaced=0 / bluray_compat=0 / constrained_intra=0 / bframes=11 / b_pyramid=2 / b_adapt=2 / b_bias=0 / direct=1 / weightb=1 / open_gop=0 / weightp=2 / keyint=250 / keyint_min=25 / scenecut=40 / intra_refresh=0 / rc=2pass / mbtree=0 / bitrate=4000 / ratetol=1.0 / qcomp=0.60 / qpmin=0 / qpmax=69 / qpstep=4 / cplxblur=20.0 / qblur=0.5 / ip_ratio=1.40 / pb_ratio=1.30 / aq=3:1.00
Default : No
Forced : No
Color range : Limited
Color primaries : BT.709
Transfer characteristics : BT.709
Matrix coefficients : BT.709
Audio
ID : 2
Format : AC-3
Format/Info : Audio Coding 3
Codec ID : A_AC3
Duration : 47 min 15 s
Bit rate mode : Constant
Bit rate : 192 kb/s
Channel(s) : 2 channels
Channel positions : Front: L R
Sampling rate : 48.0 kHz
Frame rate : 31.250 FPS (1536 SPF)
Bit depth : 16 bits
Compression mode : Lossy
Stream size : 64.9 MiB (5%)
Language : Russian
Service kind : Complete Main
Default : Yes
Forced : Yes

Скриншоты


[cybertorrent.ru].t3551.torrent 
Торрент: Зарегистрирован [ 2019-06-10 15:39 ] · 21C9D4B4797819288438EA2A6EA6AACD623AC5C1

Скачать .torrent

Скачать

29 KB

Статус: проверено
Скачан: 0 раз
Размер: 5,73 GB
terms.php
[Профиль] [ЛС]
Показать сообщения:    
Ответить на тему

Текущее время: 19-Авг 18:09

Часовой пояс: UTC ± 0



Вы не можете начинать темы
Вы не можете отвечать на сообщения
Вы не можете редактировать свои сообщения
Вы не можете удалять свои сообщения
Вы не можете голосовать в опросах
Вы не можете прикреплять файлы к сообщениям
Вы можете скачивать файлы