Игры разумов / The Professor and the Madman (Фарад Сафиниа / Farhad Safinia) [2018, Ирландия, триллер, драма, детектив, биография, WEB-DLRip-AVC] Dub (iTunes)

Ответить на тему
Статистика раздачи
Размер:  1,47 GB   |    Зарегистрирован:  2 месяца 8 дней   |    Скачан:  0 раз
Сидов:  14  [  0 KB/s  ]  
   
 
Автор Сообщение

солнышко ®

Пол: Не указан

Стаж: 5 месяцев 7 дней

Сообщений: 535

Создавать темы 11-Июн-2019 16:06

[Цитировать]

-Игры разумов / The Professor and the Madman-«Гений или сумасшедший? Преступник или жертва?»- -Страна: Ирландия
Жанр: триллер, драма, детектив, биография
Год выпуска: 2018
Продолжительность: 02:04:27-Перевод: Профессиональный (дублированный) iTunes
Субтитры: нет
Оригинальная аудиодорожка: нет-Режиссер: Фарад Сафиниа / Farhad Safinia-В ролях: Мэл Гибсон, Шон Пенн, Натали Дормер, Джереми Ирвин, Дженнифер Или, Стив Кугэн, Стивен Диллэйн, Эдди Марсан, Йоан Гриффит, Лоуренс Фокс-Описание: Англия середины XIX века. Оксфордский профессор Джеймс Мюррей работает над первым в истории словарем английского языка, а его главным соратником становится заключенный психиатрической клиники для особо опасных преступников - доктор Уильям Майнор. Гений Майнор или сумасшедший, хитроумный преступник, ведущий дерзкую игру, чтобы вырваться на свободу, или одержимый ученый? И кто тогда Мюррей: верный друг, жертва манипуляции или организатор сговора?- - -Качество видео: WEB-DLRip-AVC / WEB-DL 1080p
Формат видео: MKV-Видео: MPEG-4 AVC, 904x376 (2.40:1), 24.000 fps, ~1269 kbps avg, 0.156 bit/pixel
Аудио: 48 kHz, AC3 Dolby Digital, 3/2 (L,C,R,l,r) + LFE ch, ~384 kbps avg-

MediaInfo

Код:Complete name : D:\Раздача\Игры разумов (2018) WEB-DLRip-AVC_ivanes.mkv
Format : Matroska
Format version : Version 2
File size : 1.47 GiB
Duration : 2 h 4 min
Overall bit rate : 1 686 kb/s
Movie name : Игры разумов (2018) WEB-DLRip-AVC_ivanes
Encoded date : UTC 2019-06-10 18:14:55
Writing application : mkvmerge v4.4.0 ('Die Wiederkehr') сборка от Jan 3 2011 21:40:45
Writing library : libebml v1.0.0 + libmatroska v1.0.0
Cover : Yes
Attachments : cover.jpg
Video
ID : 1
Format : AVC
Format/Info : Advanced Video Codec
Format profile : High@L4.1
Format settings, CABAC : Yes
Format settings, RefFrames : 14 frames
Codec ID : V_MPEG4/ISO/AVC
Duration : 2 h 4 min
Bit rate : 1 269 kb/s
Width : 904 pixels
Height : 376 pixels
Display aspect ratio : 2.40:1
Frame rate mode : Constant
Frame rate : 24.000 FPS
Color space : YUV
Chroma subsampling : 4:2:0
Bit depth : 8 bits
Scan type : Progressive
Bits/(Pixel*Frame) : 0.156
Stream size : 1.10 GiB (75%)
Title : Rip by ivanes
Writing library : x264 core 157 r2969 d4099dd
Encoding settings : cabac=1 / ref=14 / deblock=1:-3:-3 / analyse=0x3:0x113 / me=umh / subme=10 / psy=1 / psy_rd=1.00:0.00 / mixed_ref=1 / me_range=32 / chroma_me=1 / trellis=2 / 8x8dct=1 / cqm=0 / deadzone=21,11 / fast_pskip=0 / chroma_qp_offset=-2 / threads=12 / lookahead_threads=2 / sliced_threads=0 / nr=0 / decimate=1 / interlaced=0 / bluray_compat=0 / constrained_intra=0 / bframes=14 / b_pyramid=2 / b_adapt=2 / b_bias=0 / direct=1 / weightb=1 / open_gop=0 / weightp=2 / keyint=240 / keyint_min=24 / scenecut=40 / intra_refresh=0 / rc_lookahead=60 / rc=crf / mbtree=0 / crf=17.3 / qcomp=0.60 / qpmin=0 / qpmax=69 / qpstep=4 / vbv_maxrate=50000 / vbv_bufsize=62500 / crf_max=0.0 / nal_hrd=none / filler=0 / ip_ratio=1.40 / pb_ratio=1.30 / aq=1:1.00
Default : Yes
Forced : No
Statistics Tags Issue : mkvmerge v10.0.0 ('To Drown In You') 64bit 2019-06-10 18:13:31 / mkvmerge v4.4.0 ('Die Wiederkehr') сборка от Jan 3 2011 21:40:45 2019-06-10 18:14:55
FromStats_BitRate : 1300614
FromStats_Duration : 02:04:27.000000000
FromStats_FrameCount : 179208
FromStats_StreamSize : 1213961298
Audio
ID : 2
Format : AC-3
Format/Info : Audio Coding 3
Format settings, Endianness : Big
Codec ID : A_AC3
Duration : 2 h 4 min
Bit rate mode : Constant
Bit rate : 384 kb/s
Channel(s) : 6 channels
Channel positions : Front: L C R, Side: L R, LFE
Sampling rate : 48.0 kHz
Frame rate : 31.250 FPS (1536 SPF)
Bit depth : 16 bits
Compression mode : Lossy
Stream size : 342 MiB (23%)
Title : iTunes
Language : Russian
Service kind : Complete Main
Default : Yes
Forced : No

Скриншоты

[cybertorrent.ru].t3570.torrent 
Торрент: Зарегистрирован [ 2019-06-11 16:07 ] · B4593D97B357BE1221D54059766D96A6FA09BDC5

Скачать .torrent

Скачать

15 KB

Статус: проверено
Скачан: 0 раз
Размер: 1,47 GB
terms.php
[Профиль] [ЛС]
Показать сообщения:    
Ответить на тему

Текущее время: 19-Авг 18:09

Часовой пояс: UTC ± 0



Вы не можете начинать темы
Вы не можете отвечать на сообщения
Вы не можете редактировать свои сообщения
Вы не можете удалять свои сообщения
Вы не можете голосовать в опросах
Вы не можете прикреплять файлы к сообщениям
Вы можете скачивать файлы