Гранд / Сезон: 2 / Серии: 1-3 из 20 (Дмитрий Грибанов) [2019, комедия, WEBRip 1080p]

Ответить на тему
Статистика раздачи
Размер:  3,13 GB   |    Зарегистрирован:  2 месяца 7 дней   |    Скачан:  0 раз

Полного источника не было: Никогда

   
 
Автор Сообщение

sss777sss ®

Пол: Не указан

Стаж: 2 месяца 13 дней

Сообщений: 245

Создавать темы 18-Мар-2019 09:58

[Цитировать]

Гранд
Год выпуска: 2019
Производство: Yellow, Black and White
Жанр: комедия
Продолжительность: ~00:24:00 серия
Субтитры: нет
Режиссёр: Дмитрий Грибанов
В ролях: Григорий Сиятвинда, Мила Сивацкая, Семён Трескунов, Константин Белошапка, Александра Кузенкина, Екатерина Вилкова, Александр Лыков, Владислав Ветров, Наталья Щукина, Михаил Тарабукин, Константин Федоров, Виктор Хориняк, Ольга Кузьмина, Сергей Лавыгин, Жаннат Керимбаев, Анжелика Каширина, Александр Тютин

Описание: Гранд» ждут большие перемены. Его хозяин, Лев Глебович Федотов, привез из отпуска не только новую жену, но и управляющего Станислава. Ревностный поборник должностных инструкций и субординации, за плечами которого остался престижный университет Сиднея и опыт работы в фешенебельном отеле, пытается навести дисциплину среди многочисленных подчиненных. Однако персонал совершенно не воспринимает молодого управленца всерьез. Так что Стасу придется приложить немалые усилия, чтобы пережить саботаж, интриги и выполнить все поручения эксцентричного владельца «Гранда». Ксюше появление нового управляющего приходится как нельзя кстати. Горничная, мечтающая о собственном отеле, придумала очередной способ продвинуться по карьерной лестнице. Впрочем, у девушки появился достойный соперник – новый горничный Владимир Юсупович. Бывший химик, прирожденный педант и искусный обольститель заставит дрогнуть некоторых обитательниц «Гранда», а его мужскую часть – сильно насторожиться. Словом, в новом сезоне коридоры и комнаты отеля будут полны детективных историй и страстей.

Реклама: Нет.
Кинопоиск
Все раздачи сериала
Sample
Качество: WEBRip 1080p - Getty
Формат: MKV
Видео кодек: H.264
Аудио кодек: AC3
Видео: MPEG4 AVC Video, H264, 16:9, 1920x1080, 23.976 fps, ~6400 kbps, 0.130 bit/pixel
Аудио: AC3 Dolby Digital, 48.0 kHz, 2/0 (L,R) ch, 192 kbps

Внимание! Раздача ведётся путём добавления новых серий

Раздача ведётся путём добавления новых серий, при каждом добавлении создаётся новый торрент. Чтобы начать докачку новой серии, пользователям необходимо сделать следующее:
- Остановить скачивание.
- Удалить старый торрент у себя из клиента (старые серии удалять не надо).
- Скачать новый торрент и запустить его у себя в клиенте вместо старого, при этом указать клиенту путь в старую папку куда и должно происходить скачивание новых серий.
Ваш клиент при этом должен произвести хеширование (проверку) старой папки (если не производит сам - помогите ему сделать это), и будет докачивать только те серии которых у вас ещё нет. Старые серии при этом не удаляются, а продолжают раздаваться!
Если вы уже удалили старые серии, то предотвратить повторную закачку старых серий можно, отжав галочку в соответствующих местах при запуске нового торрента. По возможности, желательно не удалять старые серии как можно дольше, чтобы релизер не столько продолжал раздавать старые серии, а смог сконцентрироваться на новых.

MI

General
Unique ID : 189594122463798674640275876708620202334 (0x8EA27FF1245ABB74AE862908345C715E)
Complete name : D:\Grand.s02.2019.WEB-DL.(1080p).Getty\Grand.s02e01.2019.WEB-DL.(1080p).Getty.mkv
Format : Matroska
Format version : Version 4 / Version 2
File size : 1.09 GiB
Duration : 23 min 26 s
Overall bit rate : 6 680 kb/s
Movie name : Grand.s02.e01.2019.WEB-DL.(1080p).Getty
Encoded date : UTC 2019-03-01 11:53:34
Writing application : mkvmerge v7.8.0 ('River Man') 32bit built on Mar 27 2015 16:18:02
Writing library : libebml v1.3.1 + libmatroska v1.4.2
Video
ID : 1
Format : AVC
Format/Info : Advanced Video Codec
Format profile : High@L4
Format settings : CABAC / 4 Ref Frames
Format settings, CABAC : Yes
Format settings, ReFrames : 4 frames
Codec ID : V_MPEG4/ISO/AVC
Duration : 23 min 26 s
Bit rate : 6 486 kb/s
Width : 1 920 pixels
Height : 1 080 pixels
Display aspect ratio : 16:9
Frame rate mode : Constant
Frame rate : 23.976 (24000/1001) FPS
Color space : YUV
Chroma subsampling : 4:2:0
Bit depth : 8 bits
Scan type : Progressive
Bits/(Pixel*Frame) : 0.130
Stream size : 1.06 GiB (97%)
Default : Yes
Forced : No
Audio
ID : 2
Format : AC-3
Format/Info : Audio Coding 3
Codec ID : A_AC3
Duration : 23 min 26 s
Bit rate mode : Constant
Bit rate : 192 kb/s
Channel(s) : 2 channels
Channel positions : Front: L R
Sampling rate : 48.0 kHz
Frame rate : 31.250 FPS (1536 SPF)
Bit depth : 16 bits
Compression mode : Lossy
Stream size : 32.2 MiB (3%)
Service kind : Complete Main
Default : Yes
Forced : No

Скриншоты


[cybertorrent.ru].t360.torrent 
Торрент: Зарегистрирован [ 2019-03-18 10:04 ] · AE3549B5110B4885612A576F8B5DC3FBB5C02849

Скачать .torrent

Скачать

16 KB

Статус: проверено
Скачан: 0 раз
Размер: 3,13 GB
terms.php
[Профиль] [ЛС]
Показать сообщения:    
Ответить на тему

Текущее время: 25-Май 15:20

Часовой пояс: UTC ± 0



Вы не можете начинать темы
Вы не можете отвечать на сообщения
Вы не можете редактировать свои сообщения
Вы не можете удалять свои сообщения
Вы не можете голосовать в опросах
Вы не можете прикреплять файлы к сообщениям
Вы можете скачивать файлы