Голод / The Hunger (Тони Скотт / Tony Scott) [1983, США, мистика, драма, BDRip-AVC] 2X AVO (Белов, Михалёв) + Sub Eng, Rus + Original Eng

Ответить на тему
Статистика раздачи
Размер:  2,14 GB   |    Зарегистрирован:  3 месяца 7 дней   |    Скачан:  0 раз

Полного источника не было: Никогда

   
 
Автор Сообщение

serzh ®

Пол: Не указан

Стаж: 3 месяца 13 дней

Сообщений: 279

Создавать темы 18-Мар-2019 09:58

[Цитировать]

Голод / The Hunger
Страна: США
Жанр: мистика, драма
Год выпуска: 1983
Продолжительность: 01:36:31
Перевод 1: Авторский (одноголосый закадровый) Сергея Белова
Перевод 2: Авторский (одноголосый закадровый) Алексея Михалёва
Субтитры: английские, русские
Оригинальная аудиодорожка: английский
Режиссер: Тони Скотт /Tony Scott/
В ролях: Катрин Денев /Catherine Deneuve/, Дэвид Боуи /David Bowie/, Сьюзан Сарандон /Susan Sarandon/, Клифф Де Янг /Cliff De Young/, Дэн Хедайя /Dan Hedaya/, Бет Элерс /Beth Ehlers/, Руфус Коллинз /Rufus Collins/, Сюзэнн Бертиш /Suzanne Bertish/, Уиллем Дефо /Willem Dafoe/...
Рецензия Михаила Иванова: Завораживющий, очень красиво снятый фильм с сочетанием ужасов и эротики о вампирше Денев, которой необходима кровь, чтобы поддерживать в себе вечную жизнь и молодость. Черные кожаные костюмы, черные очки, секс, эстетически выдержанная стилизация смерти, крови и эротики в сочетании с соответствующей музыкой. Сэрэндон, проводящая опыты над обезьянами в исследовательской клинике, становится жертвой и подругой Денев в вампирских кроваво-сексуальных оргиях. Расплата за наслаждения очень высока - Боуи, например, вкусивший этих прелестей, стареет не по дням, а по часам. Сцены старения потрясающи. Фильм, вообще, можно пересматривать много раз, каждый раз угадывая как в зрительном, так и в содержательном плане что-то новое на уровне воображения. Каждый кадр - шедевр фотографии. Уиллем Дэфо снялся в эпизоде, обратите внимание. Ищите в переводе Михалева. Родителям не стоит показывать эту ленту детям до шестнадцати.
Доп. информация: исходник от Bess80; Белова оцифровал и подготовил karlll
Качество видео: BDRip-AVC ~сэмпл~
Формат видео: MKV
Видео: MPEG4 Video (H264) 1152x480 23.976fps 2602Kbps
Аудио 1: Dolby AC3 48KHz 2ch 192Kbps - Белов
Аудио 2: Dolby AC3 48KHz 2ch 192Kbps - Михалёв
Аудио 3: Dolby AC3 48KHz 2ch 192Kbps - Original Eng
Формат субтитров: softsub (SRT)

MediaInfo

Format : Matroska
Format version : Version 2
File size : 2.14 GiB
Duration : 1 h 36 min
Overall bit rate : 3 178 kb/s
Movie name : The Hunger_1983 [KBC]
Encoded date : UTC 2019-03-01 16:13:08
Writing application : mkvmerge v6.9.1 ('Blue Panther') 32bit built on Apr 18 2014 18:15:44
Writing library : libebml v1.3.0 + libmatroska v1.4.1
Video
ID : 1
Format : AVC
Format/Info : Advanced Video Codec
Format profile : High@L3.1
Format settings : CABAC / 7 Ref Frames
Format settings, CABAC : Yes
Format settings, RefFrames : 7 frames
Codec ID : V_MPEG4/ISO/AVC
Duration : 1 h 36 min
Bit rate : 2 602 kb/s
Width : 1 152 pixels
Height : 480 pixels
Display aspect ratio : 2.40:1
Frame rate mode : Constant
Frame rate : 23.976 (24000/1001) FPS
Color space : YUV
Chroma subsampling : 4:2:0
Bit depth : 8 bits
Scan type : Progressive
Bits/(Pixel*Frame) : 0.196
Stream size : 1.71 GiB (80%)
Title : The Hunger_1983
Writing library : x264 core 152 r2851kMod ba24899
Encoding settings : cabac=1 / ref=7 / deblock=1:-1:-1 / analyse=0x3:0x113 / me=umh / subme=9 / psy=1 / fade_compensate=0.00 / psy_rd=1.00:0.20 / mixed_ref=1 / me_range=24 / chroma_me=1 / trellis=2 / 8x8dct=1 / cqm=0 / deadzone=21,11 / fast_pskip=0 / chroma_qp_offset=-3 / threads=6 / lookahead_threads=1 / sliced_threads=0 / nr=0 / decimate=0 / interlaced=0 / bluray_compat=0 / constrained_intra=0 / bframes=7 / b_pyramid=2 / b_adapt=2 / b_bias=0 / direct=3 / weightb=1 / open_gop=0 / weightp=2 / keyint=250 / keyint_min=23 / scenecut=40 / intra_refresh=0 / rc_lookahead=50 / rc=2pass / mbtree=1 / bitrate=2602 / ratetol=1.0 / qcomp=0.60 / qpmin=0 / qpmax=69 / qpstep=4 / cplxblur=20.0 / qblur=0.5 / vbv_maxrate=14000 / vbv_bufsize=14000 / nal_hrd=none / filler=0 / ip_ratio=1.40 / aq=1:1.00
Language : English
Default : Yes
Forced : No
Audio #1
ID : 2
Format : AC-3
Format/Info : Audio Coding 3
Commercial name : Dolby Digital
Codec ID : A_AC3
Duration : 1 h 36 min
Bit rate mode : Constant
Bit rate : 192 kb/s
Channel(s) : 2 channels
Channel layout : L R
Sampling rate : 48.0 kHz
Frame rate : 31.250 FPS (1536 SPF)
Bit depth : 16 bits
Compression mode : Lossy
Stream size : 133 MiB (6%)
Title : Белов
Language : Russian
Service kind : Complete Main
Default : Yes
Forced : No
Audio #2
ID : 3
Format : AC-3
Format/Info : Audio Coding 3
Commercial name : Dolby Digital
Codec ID : A_AC3
Duration : 1 h 36 min
Bit rate mode : Constant
Bit rate : 192 kb/s
Channel(s) : 2 channels
Channel layout : L R
Sampling rate : 48.0 kHz
Frame rate : 31.250 FPS (1536 SPF)
Bit depth : 16 bits
Compression mode : Lossy
Stream size : 133 MiB (6%)
Title : Михалёв
Language : Russian
Service kind : Complete Main
Default : No
Forced : No
Audio #3
ID : 4
Format : AC-3
Format/Info : Audio Coding 3
Commercial name : Dolby Digital
Codec ID : A_AC3
Duration : 1 h 36 min
Bit rate mode : Constant
Bit rate : 192 kb/s
Channel(s) : 2 channels
Channel layout : L R
Sampling rate : 48.0 kHz
Frame rate : 31.250 FPS (1536 SPF)
Bit depth : 16 bits
Compression mode : Lossy
Stream size : 133 MiB (6%)
Title : english
Language : English
Service kind : Complete Main
Default : No
Forced : No
Text #1
ID : 5
Format : UTF-8
Codec ID : S_TEXT/UTF8
Codec ID/Info : UTF-8 Plain Text
Title : eng
Language : English
Default : No
Forced : No
Text #2
ID : 6
Format : UTF-8
Codec ID : S_TEXT/UTF8
Codec ID/Info : UTF-8 Plain Text
Title : рус
Language : Russian
Default : No
Forced : No
Menu
00:00:00.000 : en:00:00:00.000
00:03:10.899 : en:00:03:10.899
00:06:30.098 : en:00:06:30.098
00:12:29.374 : en:00:12:29.374
00:16:20.938 : en:00:16:20.938
00:21:09.852 : en:00:21:09.852
00:27:52.296 : en:00:27:52.296
00:32:26.153 : en:00:32:26.153
00:38:40.485 : en:00:38:40.485
00:44:49.896 : en:00:44:49.896
00:48:23.776 : en:00:48:23.776
00:52:23.223 : en:00:52:23.223
00:56:13.328 : en:00:56:13.328
01:00:05.602 : en:01:00:05.602
01:03:30.432 : en:01:03:30.432
01:08:30.148 : en:01:08:30.148
01:10:41.904 : en:01:10:41.904
01:13:53.512 : en:01:13:53.512
01:16:47.228 : en:01:16:47.228
01:21:12.034 : en:01:21:12.034
01:24:44.121 : en:01:24:44.121
01:29:48.466 : en:01:29:48.466
01:33:13.713 : en:01:33:13.713

Скриншоты

[cybertorrent.ru].t365.torrent 
Торрент: Зарегистрирован [ 2019-03-18 10:04 ] · 70061BAB1A453184F7E238FE88DFB4B5E4CFEB87

Скачать .torrent

Скачать

11 KB

Статус: проверено
Скачан: 0 раз
Размер: 2,14 GB
terms.php
[Профиль] [ЛС]
Показать сообщения:    
Ответить на тему

Текущее время: 25-Июн 22:48

Часовой пояс: UTC ± 0



Вы не можете начинать темы
Вы не можете отвечать на сообщения
Вы не можете редактировать свои сообщения
Вы не можете удалять свои сообщения
Вы не можете голосовать в опросах
Вы не можете прикреплять файлы к сообщениям
Вы можете скачивать файлы