Бумажные души / Les âmes de papier (Венсан Лано / Vincent Lanoo) [2013, Франция, Бельгия, Люксембург, трагикомедия, TVRip] VO + Sub Rus + Original Fra

Ответить на тему
Статистика раздачи
Размер:  1,35 GB   |    Зарегистрирован:  5 месяцев 28 дней   |    Скачан:  0 раз

Полного источника не было: Никогда

   
 
Автор Сообщение

cyber ®

Пол: Не указан

Стаж: 6 месяцев 3 дня

Сообщений: 160

Создавать темы 18-Мар-2019 09:58

[Цитировать]

Бумажные души / Les âmes de papier
Страна: Франция, Бельгия, Люксембург
Жанр: трагикомедия
Год выпуска: 2013
Продолжительность: 01:37:12
Перевод: Одноголосый закадровый
Субтитры: русские
Оригинальная аудиодорожка: французский
Режиссер: Венсан Лано / Vincent Lanoo
В ролях: Стефан Гийон / Stéphane Guillon (Paul), Жюли Гайе / Julie Gayet (Emma), Джонатан Заккаи / Jonathan Zaccaï (Nathan), Пьер Ришар / Pierre Richard (Victor), Жюль Ротенберг / Jules Rotenberg (Adam), Венсан Лано / Vincent Lannoo (Le Père Noël)
Описание: Это история о любви и призраках… У Поля необычное ремесло – он пишет надгробные эпитафии. Однажды Эмма, молодая вдова военного репортера, просит Поля придумать историю, которую можно будет рассказать 8-летнему сыну: о том, что его отец умер…
Сэмпл: http://multi-up.com/1225189
Качество видео: TVRip
Формат видео: MKV
Видео: MPEG-4 Visual at 1595 Кбит/сек : 720 x 480 (1.500) at 25.000 fps
Аудио 1: MPEG Audio at 192 Кбит/сек : 2 канала, 48,0 КГц Language : ru
Аудио 2: MPEG Audio at 192 Кбит/сек : 2 канала, 48,0 КГц Language : fr
Формат субтитров: hardsub (неотключаемые)
Доп. информация о субтитрах: Русские (К.Семенюк, Éclair Media)

MediaInfo

Общее
Уникальный идентификатор : 180839331159640650573981890992909161842 (0x880C6367A68760BCA33953FA25959572)
Полное имя : F:\С моей озвучкой\Бумажные души.mkv
Формат : Matroska
Версия формата : Version 4 / Version 2
Размер файла : 1,35 Гбайт
Продолжительность : 1 ч. 37 м.
Общий поток : 1982 Кбит/сек
Дата кодирования : UTC 2019-03-01 18:21:11
Программа кодирования : mkvmerge v7.9.0 ('Birds') 64bit
Библиотека кодирования : libebml v1.3.1 + libmatroska v1.4.2
Видео
Идентификатор : 1
Формат : MPEG-4 Visual
Профиль формата : Simple@L3
Параметр BVOP формата : Нет
Параметр QPel формата : Нет
Параметр GMC формата : Без точки перехода
Параметр матрицы формата : Default (H.263)
Идентификатор кодека : V_MS/VFW/FOURCC / XVID
Идентификатор кодека/Подсказка : XviD
Продолжительность : 1 ч. 37 м.
Битрейт : 1595 Кбит/сек
Ширина : 720 пикселей
Высота : 480 пикселей
Соотношение сторон : 3:2
Режим частоты кадров : Постоянный
Частота кадров : 25,000 кадров/сек
Цветовое пространство : YUV
Субдискретизация насыщенности : 4:2:0
Битовая глубина : 8 бит
Тип развёртки : Прогрессивная
Метод сжатия : С потерями
Бит/(Пиксели*Кадры) : 0.185
Размер потока : 1,08 Гбайт (80%)
Библиотека кодирования : XviD 1.2.1 (UTC 2008-12-04)
Default : Да
Forced : Нет
Аудио #1
Идентификатор : 2
Формат : MPEG Audio
Версия формата : Version 1
Профиль формата : Layer 2
Режим : Joint stereo
Расширение режима : Intensity Stereo + MS Stereo
Идентификатор кодека : A_MPEG/L2
Идентификатор кодека/Подсказка : MP2
Продолжительность : 1 ч. 37 м.
Вид битрейта : Постоянный
Битрейт : 192 Кбит/сек
Каналы : 2 канала
Частота : 48,0 КГц
Частота кадров : 41,667 кадра/сек (1152 spf)
Метод сжатия : С потерями
Размер потока : 133 Мбайт (10%)
Язык : Russian
Default : Да
Forced : Нет
Аудио #2
Идентификатор : 3
Формат : MPEG Audio
Версия формата : Version 1
Профиль формата : Layer 3
Режим : Joint stereo
Расширение режима : MS Stereo
Идентификатор кодека : A_MPEG/L3
Идентификатор кодека/Подсказка : MP3
Продолжительность : 1 ч. 37 м.
Вид битрейта : Постоянный
Битрейт : 192 Кбит/сек
Каналы : 2 канала
Частота : 48,0 КГц
Частота кадров : 41,667 кадра/сек (1152 spf)
Метод сжатия : С потерями
Размер потока : 133 Мбайт (10%)
Библиотека кодирования : LAME3.98.2
Язык : French
Default : Нет
Forced : Нет

Скриншоты

[cybertorrent.ru].t366.torrent 
Торрент: Зарегистрирован [ 2019-03-18 10:04 ] · D6CA627EF6E4B1CF94DFD660630EEBDFBD837C9E

Скачать .torrent

Скачать

14 KB

Статус: проверено
Скачан: 0 раз
Размер: 1,35 GB
terms.php
[Профиль] [ЛС]
Показать сообщения:    
Ответить на тему

Текущее время: 16-Сен 08:52

Часовой пояс: UTC ± 0



Вы не можете начинать темы
Вы не можете отвечать на сообщения
Вы не можете редактировать свои сообщения
Вы не можете удалять свои сообщения
Вы не можете голосовать в опросах
Вы не можете прикреплять файлы к сообщениям
Вы можете скачивать файлы

Партнеры

Выражаем благодарность всем людям, внесшим вклад в наш сайт в далёком прошлом. Мы помним Вас, гордимся Вами и ждём Вас обратно!

Интересное в сети