Дом 2: Проклятая обитель / House II: The Second Story (Этан Уайли / Ethan Wiley) [1987, США, комедия, фэнтези, ужасы, BDRip] AVO (Андрей Гаврилов)

Ответить на тему
Статистика раздачи
Размер:  1,45 GB   |    Зарегистрирован:  5 месяцев   |    Скачан:  0 раз

Полного источника не было: Никогда

   
 
Автор Сообщение

serzh ®

Пол: Не указан

Стаж: 5 месяцев 6 дней

Сообщений: 348

Создавать темы 18-Мар-2019 09:58

[Цитировать]

Дом 2: Проклятая обитель / House II: The Second Story
Страна: США
Жанр: комедия, фэнтези, ужасы
Год выпуска: 1987
Продолжительность: 01:27:46
Перевод: Авторский (одноголосый закадровый) Андрей Гаврилов
Субтитры: нет
Оригинальная аудиодорожка: нет
Режиссер: Этан Уайли / Ethan Wiley
В ролях: Ари Гросс, Джонатан Старк, Ройал Дэно, Билл Маар, Джон Ратценбергер, Лар Парк-Линкольн, Эми Ясбек, Грегори Уэлкотт, Дуайр Браун, Ленора Мэй
Описание: Молодой человек наследует старый дом и приглашает переехать туда свою подругу. С ними происходит ряд мистических случаев, что заставляет парня разрыть могилу своего давно умершего деда, который оказывается жив. И так все еще только начинается…
Сэмпл: http://multi-up.com/1225248
Качество видео: BDRip (The House Collection (1985-1992) 1080p GBR Blu-ray AVC DTS-HD MA 5.1-CultFilms™)
Формат видео: AVI
Видео: 704x384 (1,85:1), 24,000 fps, XviD build 67, 2254 kbps, 0.333 bit/pixel
Аудио: AC3, 48 kHz, 2.0, 192 kbps, 16 bit

MediaInfo

General
Complete name : House.II.The.Second.Story.1987.BDRip.Xvid.avi
Format : AVI
Format/Info : Audio Video Interleave
File size : 1.45 GiB
Duration : 1 h 27 min
Overall bit rate : 2 362 kb/s
Writing application : VirtualDubMod 1.5.10.3 | www.virtualdub-fr.org || (build 2550/release)
Writing library : VirtualDubMod build 2550/release
Video
ID : 0
Format : MPEG-4 Visual
Format profile : Advanced Simple@L5
Format settings, BVOP : 1
Format settings, QPel : No
Format settings, GMC : No warppoints
Format settings, Matrix : Custom
Codec ID : XVID
Codec ID/Hint : XviD
Duration : 1 h 27 min
Bit rate : 2 160 kb/s
Width : 704 pixels
Height : 384 pixels
Display aspect ratio : 1.85:1
Frame rate : 24.000 FPS
Color space : YUV
Chroma subsampling : 4:2:0
Bit depth : 8 bits
Scan type : Progressive
Compression mode : Lossy
Bits/(Pixel*Frame) : 0.333
Stream size : 1.32 GiB (91%)
Writing library : XviD 67
Audio
ID : 1
Format : AC-3
Format/Info : Audio Coding 3
Format settings, Endianness : Big
Codec ID : 2000
Duration : 1 h 27 min
Bit rate mode : Constant
Bit rate : 192 kb/s
Channel(s) : 2 channels
Channel positions : Front: L R
Sampling rate : 48.0 kHz
Frame rate : 31.250 FPS (1536 SPF)
Bit depth : 16 bits
Compression mode : Lossy
Stream size : 121 MiB (8%)
Alignment : Split accross interleaves
Interleave, duration : 42 ms (1.00 video frame)
Interleave, preload duration : 500 ms
Service kind : Complete Main

Скриншоты

[cybertorrent.ru].t369.torrent 
Торрент: Зарегистрирован [ 2019-03-18 10:04 ] · B6176A2C96BD64E3AE8339AB513CD92529E941CC

Скачать .torrent

Скачать

15 KB

Статус: проверено
Скачан: 0 раз
Размер: 1,45 GB
terms.php
[Профиль] [ЛС]
Показать сообщения:    
Ответить на тему

Текущее время: 18-Авг 23:48

Часовой пояс: UTC ± 0



Вы не можете начинать темы
Вы не можете отвечать на сообщения
Вы не можете редактировать свои сообщения
Вы не можете удалять свои сообщения
Вы не можете голосовать в опросах
Вы не можете прикреплять файлы к сообщениям
Вы можете скачивать файлы