Закон рынка / La loi du marché (Стефан Бризе / Stéphane Brizé) [2015, Франция, драма, HDRip] MVO (студия «Марафон»)

Ответить на тему
Статистика раздачи
Размер:  1,37 GB   |    Зарегистрирован:  4 месяца   |    Скачан:  0 раз

Полного источника не было: Никогда

   
 
Автор Сообщение

cyber ®

Пол: Не указан

Стаж: 4 месяца 6 дней

Сообщений: 117

Создавать темы 18-Мар-2019 09:58

[Цитировать]

Закон рынка / La loi du marché Страна: Франция
Жанр: драма
Год выпуска: 2015
Продолжительность: 01:31:23
Перевод: Профессиональный (многоголосый закадровый) - студия «Марафон»
Субтитры: нет
Оригинальная аудиодорожка: нет
Режиссер: Стефан Бризе / Stéphane Brizé
В ролях: Венсан Линдон, Карин де Мирбек, Маттье Шаллер, Ив Ори, Ксавье Матьё, Пол Портолоу, Пьер-Жан Фельд, Филипп Веско, Христоф Россигнон, Ноэль Мэйро.
Описание: Тьерри 51 год, его жизнь не проста, но он умеет радоваться мелочам. После почти двух лет безработицы и жизни на пособии он наконец устраивается охранником в супермаркет. Казалось, одной проблемой меньше, но вскоре Тьерри сталкивается с дилеммой. Обстоятельства и долг заставляют его выбирать между справедливостью и милосердием. На что готов пойти человек в страхе потерять доставшееся с трудом место работы?
«Золотая пальмовая ветвь» Каннского Кинофестиваля 2015 года Венсану Линдону за "Лучшую мужскую роль", а также «Приз экуменического жюри».


Качество видео: HDRip
Формат видео: AVI
Видео: 720x304 (2.37:1), 23.976 fps, XviD build 50 ~1941 kbps avg, 0.37 bit/pixel
Аудио: 48 kHz, AC3 Dolby Digital, 2/0 (L,R) ch, ~192 kbps

MediaInfo

General
Complete name : D:\Public\La.loi.du.marché.2015.P.HDRip.1400MB.avi
Format : AVI
Format/Info : Audio Video Interleave
File size : 1.37 GiB
Duration : 1 h 31 min
Overall bit rate : 2 143 kb/s
Writing application : VirtualDubMod 1.5.10.3 | www.virtualdub-fr.org || (build 2550/release)
Writing library : VirtualDubMod build 2550/release
Video
ID : 0
Format : MPEG-4 Visual
Format profile : Advanced Simple@L5
Format settings, BVOP : 2
Format settings, QPel : No
Format settings, GMC : No warppoints
Format settings, Matrix : Default (MPEG)
Codec ID : XVID
Codec ID/Hint : XviD
Duration : 1 h 31 min
Bit rate : 1 942 kb/s
Width : 720 pixels
Height : 304 pixels
Display aspect ratio : 2.35:1
Frame rate : 23.976 (24000/1001) FPS
Color space : YUV
Chroma subsampling : 4:2:0
Bit depth : 8 bits
Scan type : Progressive
Compression mode : Lossy
Bits/(Pixel*Frame) : 0.370
Stream size : 1.24 GiB (91%)
Writing library : XviD 1.2.1 (UTC 2008-12-04)
Audio
ID : 1
Format : AC-3
Format/Info : Audio Coding 3
Format settings, Endianness : Big
Codec ID : 2000
Duration : 1 h 31 min
Bit rate mode : Constant
Bit rate : 192 kb/s
Channel(s) : 2 channels
Channel positions : Front: L R
Sampling rate : 48.0 kHz
Frame rate : 31.250 FPS (1536 SPF)
Bit depth : 16 bits
Compression mode : Lossy
Stream size : 125 MiB (9%)
Alignment : Split accross interleaves
Interleave, duration : 42 ms (1.00 video frame)
Interleave, preload duratio : 500 ms
Service kind : Complete Main

Скриншот c названием фильма

Скриншоты

[cybertorrent.ru].t371.torrent 
Торрент: Зарегистрирован [ 2019-03-18 10:04 ] · AADF193EC4485846B85C685A8D469B56C746D3E0

Скачать .torrent

Скачать

14 KB

Статус: проверено
Скачан: 0 раз
Размер: 1,37 GB
terms.php
[Профиль] [ЛС]
Показать сообщения:    
Ответить на тему

Текущее время: 18-Июл 23:37

Часовой пояс: UTC ± 0



Вы не можете начинать темы
Вы не можете отвечать на сообщения
Вы не можете редактировать свои сообщения
Вы не можете удалять свои сообщения
Вы не можете голосовать в опросах
Вы не можете прикреплять файлы к сообщениям
Вы можете скачивать файлы