Девятая конфигурация / The Ninth Configuration (Уильям Питер Блэтти / William Peter Blatty) [1980, США, ужасы, триллер, драма, комедия, детектив, HDRip] DVO (ТО "Синека") + Original Eng

Ответить на тему
Статистика раздачи
Размер:  1,49 GB   |    Зарегистрирован:  3 месяца 1 день   |    Скачан:  0 раз

Полного источника не было: Никогда

   
 
Автор Сообщение

serzh ®

Пол: Не указан

Стаж: 3 месяца 7 дней

Сообщений: 274

Создавать темы 18-Мар-2019 09:58

[Цитировать]

Девятая конфигурация / The Ninth Configuration
«How Do You Fight A War Called Madness?»
Страна: США
Жанр: ужасы, триллер, драма, комедия, детектив
Год выпуска: 1980
Продолжительность: 01:57:49
Перевод: двухголосый (любительский) ТО "Синека"
Субтитры: нет
Оригинальная аудиодорожка: английский
Режиссер: Уильям Питер Блэтти / William Peter Blatty
В ролях: Стейси Кич
Скотт Уилсон
Джейсон Миллер
Эд Флэндерс
Невилл Брэнд
Джордж ДиЧенцо
Моузес Ганн
Роберт Лоджа
Описание: Новый командир части прибывает в замок, который служит приютом для душевнобольных солдат американской армии. Он пытается исцелить их, предоставляя им возможность «воплотить в жизнь» их сумасшедшие фантазии, в процессе сражаясь со своим собственным сумасшествием…
Доп. информация: Рип из исходника The.Ninth.Configuration.1980.1080p.BluRay.x264-BRMP - rarbg2018
Дорога из соц.сетей.
Наводка от Serg377
Релиз
Сэмпл: https://yadi.sk/i/21XeIjYsymMcIQ
Качество видео: HDRip
Формат видео: AVI
Видео: 720x304 (2.37:1), 23.976 fps, XviD build 73 ~1417 kbps avg, 0.27 bit/pixel
Аудио: 48 kHz, AC3 Dolby Digital, 2/0 (L,R) ch, ~192 kbps
Аудио 2: 48 kHz, AC3 Dolby Digital, 2/0 (L,R) ch, ~192 kbps

MediaInfo

Девятая конфигурация - The Ninth Configuration [by Edich2].avi
Format : AVI
Format/Info : Audio Video Interleave
File size : 1.49 GiB
Duration : 1 h 57 min
Overall bit rate : 1 815 kb/s
Movie name : Девятая конфигурация - The Ninth Configuration [by Edich2]
Director : by Edich2
Writing application : VirtualDubMod 1.5.10.2 (build 2540/release)
Comment : Rutracker.org
Video
ID : 0
Format : MPEG-4 Visual
Format profile : Advanced Simple@L5
Format settings : BVOP1 / Custom Matrix
Format settings, BVOP : 1
Format settings, QPel : No
Format settings, GMC : No warppoints
Format settings, Matrix : Custom
Codec ID : XVID
Codec ID/Hint : XviD
Duration : 1 h 57 min
Bit rate : 1 417 kb/s
Width : 720 pixels
Height : 304 pixels
Display aspect ratio : 2.35:1
Frame rate : 23.976 (24000/1001) FPS
Color space : YUV
Chroma subsampling : 4:2:0
Bit depth : 8 bits
Scan type : Progressive
Compression mode : Lossy
Bits/(Pixel*Frame) : 0.270
Stream size : 1.17 GiB (78%)
Writing library : XviD 73
Audio #1
ID : 1
Format : AC-3
Format/Info : Audio Coding 3
Codec ID : 2000
Duration : 1 h 57 min
Bit rate mode : Constant
Bit rate : 192 kb/s
Channel(s) : 2 channels
Channel positions : Front: L R
Sampling rate : 48.0 kHz
Frame rate : 31.250 FPS (1536 SPF)
Bit depth : 16 bits
Compression mode : Lossy
Stream size : 162 MiB (11%)
Alignment : Split accross interleaves
Interleave, duration : 42 ms (1.00 video frame)
Interleave, preload duratio : 500 ms
Service kind : Complete Main
Audio #2
ID : 2
Format : AC-3
Format/Info : Audio Coding 3
Codec ID : 2000
Duration : 1 h 57 min
Bit rate mode : Constant
Bit rate : 192 kb/s
Channel(s) : 2 channels
Channel positions : Front: L R
Sampling rate : 48.0 kHz
Frame rate : 31.250 FPS (1536 SPF)
Bit depth : 16 bits
Compression mode : Lossy
Stream size : 162 MiB (11%)
Alignment : Split accross interleaves
Interleave, duration : 42 ms (1.00 video frame)
Interleave, preload duratio : 500 ms
Service kind : Complete Main

Скриншоты


[cybertorrent.ru].t372.torrent 
Торрент: Зарегистрирован [ 2019-03-18 10:04 ] · E1B68E3C13CEAB13CA5F9B3E5836A99969312B0F

Скачать .torrent

Скачать

15 KB

Статус: проверено
Скачан: 0 раз
Размер: 1,49 GB
terms.php
[Профиль] [ЛС]
Показать сообщения:    
Ответить на тему

Текущее время: 19-Июн 22:59

Часовой пояс: UTC ± 0



Вы не можете начинать темы
Вы не можете отвечать на сообщения
Вы не можете редактировать свои сообщения
Вы не можете удалять свои сообщения
Вы не можете голосовать в опросах
Вы не можете прикреплять файлы к сообщениям
Вы можете скачивать файлы