Айсберг / Iceberg (Габриэль Веласкес / Gabriel Velázquez) [2011, Испания, драма, WEBRip-AVC] VO + Sub Rus + Original Spa

Ответить на тему
Статистика раздачи
Размер:  986 MB   |    Зарегистрирован:  2 месяца 29 дней   |    Скачан:  0 раз

Полного источника не было: Никогда

   
 
Автор Сообщение

cyber ®

Пол: Не указан

Стаж: 3 месяца 4 дня

Сообщений: 90

Создавать темы 18-Мар-2019 09:58

[Цитировать]

Айсберг / Iceberg
Страна: Испания
Жанр: драма
Год выпуска: 2011
Продолжительность: 01:18:27
Перевод: Одноголосый закадровый
Субтитры: русские, английские
Оригинальная аудиодорожка: испанский
Режиссер: Габриэль Веласкес / Gabriel Velázquez
В ролях: Carolina Morocho, Хесус Ньето / Jesús Nieto, Víctor García, Juanma Sevillano
Описание: Каждый знает, что айсберг виднеется только своей небольшой частью. Также лишь небольшие части переживаний подростков показаны в этой медленно текущей подростковой драме. В фильме камера показывает нескольких из них в в течение холодной зимы в небольшом городе у реки. Маури (13) в скорби по своему отцу, который погиб в автомобильной катастрофе. Ребекка (12) пытается выжить в свои первые дни в школе-интернате и два мальчика 17 и 18 лет ведут свою беззаботнцю жизнь в небольшом домике у реки. О немногом говорится в этой красиво снятой драме, но чувства подростков выявляют происходящее. Иногда их истории пересекаются друг с другом, но все они борются со своими собственными демонами.
Сэмпл: http://multi-up.com/1225300
Качество видео: WEBRip-AVC
Формат видео: MKV
Видео: AVC at 1500 Кбит/сек : 640 x 352 (1.818) at 25.000 fps
Аудио 1: AAC at 126 Кбит/сек : 2 канала, 44,1 КГц Language : ru
Аудио 2: AAC at 128 Кбит/сек : 2 канала, 44,1 КГц Language : en
Формат субтитров: prerendered (IDX+SUB)
Доп. информация о субтитрах: Русские (Thoma_), английские встроенные неотключаемые

MediaInfo

Общее
Уникальный идентификатор : 251384311901232059035828875522336788506 (0xBD1EDB7D842A7FE9882C6209C172901A)
Полное имя : F:\С моей озвучкой\Айсберг.mkv
Формат : Matroska
Версия формата : Version 4 / Version 2
Размер файла : 986 Мбайт
Продолжительность : 1 ч. 18 м.
Общий поток : 1756 Кбит/сек
Дата кодирования : UTC 2019-03-02 18:21:59
Программа кодирования : mkvmerge v7.9.0 ('Birds') 64bit
Библиотека кодирования : libebml v1.3.1 + libmatroska v1.4.2
Видео
Идентификатор : 1
Формат : AVC
Формат/Информация : Advanced Video Codec
Профиль формата : High@L3
Параметр CABAC формата : Да
Параметр ReFrames формата : 4 кадра
Режим смешивания : Container profile=Main@3.0
Идентификатор кодека : V_MPEG4/ISO/AVC
Продолжительность : 1 ч. 18 м.
Битрейт : 1500 Кбит/сек
Ширина : 640 пикселей
Высота : 352 пикселя
Соотношение сторон : 16:9
Режим частоты кадров : Постоянный
Частота кадров : 25,000 кадров/сек
Цветовое пространство : YUV
Субдискретизация насыщенности : 4:2:0
Битовая глубина : 8 бит
Тип развёртки : Прогрессивная
Бит/(Пиксели*Кадры) : 0.266
Размер потока : 841 Мбайт (85%)
Библиотека кодирования : x264 core 118 r2085 8a62835
Настройки программы : cabac=1 / ref=4 / deblock=1:0:0 / analyse=0x3:0x113 / me=umh / subme=6 / psy=1 / psy_rd=1.00:0.00 / mixed_ref=1 / me_range=16 / chroma_me=1 / trellis=1 / 8x8dct=1 / cqm=0 / deadzone=21,11 / fast_pskip=1 / chroma_qp_offset=-2 / threads=6 / sliced_threads=0 / nr=0 / decimate=1 / interlaced=0 / bluray_compat=0 / constrained_intra=0 / bframes=4 / b_pyramid=2 / b_adapt=1 / b_bias=0 / direct=3 / weightb=1 / open_gop=0 / weightp=2 / keyint=25 / keyint_min=13 / scenecut=40 / intra_refresh=0 / rc_lookahead=25 / rc=2pass / mbtree=1 / bitrate=1500 / ratetol=1.0 / qcomp=0.60 / qpmin=10 / qpmax=51 / qpstep=4 / cplxblur=20.0 / qblur=0.5 / ip_ratio=1.40 / aq=1:1.00
Язык : English
Default : Да
Forced : Нет
Аудио #1
Идентификатор : 2
Формат : AAC
Формат/Информация : Advanced Audio Codec
Профиль формата : LC
Идентификатор кодека : A_AAC
Продолжительность : 1 ч. 18 м.
Битрейт : 126 Кбит/сек
Каналы : 2 канала
Расположение каналов : Front: L R
Частота : 44,1 КГц
Частота кадров : 43,066 кадра/сек (1024 spf)
Метод сжатия : С потерями
Размер потока : 70,4 Мбайт (7%)
Язык : Russian
Default : Нет
Forced : Нет
Аудио #2
Идентификатор : 3
Формат : AAC
Формат/Информация : Advanced Audio Codec
Профиль формата : LC
Идентификатор кодека : A_AAC
Продолжительность : 1 ч. 18 м.
Битрейт : 128 Кбит/сек
Каналы : 2 канала
Расположение каналов : Front: L R
Частота : 44,1 КГц
Частота кадров : 43,066 кадра/сек (1024 spf)
Метод сжатия : С потерями
Размер потока : 71,8 Мбайт (7%)
Язык : English
Default : Нет
Forced : Нет
Текст #1
Идентификатор : 4
Формат : UTF-8
Идентификатор кодека : S_TEXT/UTF8
Идентификатор кодека/Информация : UTF-8 Plain Text
Продолжительность : 1 ч. 6 м.
Битрейт : 2 бит/сек
ElementCount : 43
Размер потока : 1,34 Кбайт (0%)
Язык : Russian
Default : Нет
Forced : Нет
Текст #2
Идентификатор : 5
Формат : UTF-8
Идентификатор кодека : S_TEXT/UTF8
Идентификатор кодека/Информация : UTF-8 Plain Text
Продолжительность : 1 ч. 6 м.
Битрейт : 1 бит/сек
ElementCount : 43
Размер потока : 745 байт (0%)
Язык : English
Default : Нет
Forced : Нет

Скриншоты

[cybertorrent.ru].t376.torrent 
Торрент: Зарегистрирован [ 2019-03-18 10:04 ] · 6F6E9751DAFB5248303F139D52761BA181FC0C7C

Скачать .torrent

Скачать

20 KB

Статус: проверено
Скачан: 0 раз
Размер: 986 MB
terms.php
[Профиль] [ЛС]
Показать сообщения:    
Ответить на тему

Текущее время: 16-Июн 19:50

Часовой пояс: UTC ± 0



Вы не можете начинать темы
Вы не можете отвечать на сообщения
Вы не можете редактировать свои сообщения
Вы не можете удалять свои сообщения
Вы не можете голосовать в опросах
Вы не можете прикреплять файлы к сообщениям
Вы можете скачивать файлы