дай мне рубашку! --> помоги мне! --> - откуда стреляют?- оттуда! --> с площади вокруг башни --> - майор в CyberTorrent - качай без регистрации!" /> Партизаны Люцова / Люцовцы / Lützower (Вернер В. Валльрот / Werner W. Wallroth) [1972, ГДР, исторический, военный, HDTVRip] + Sub Rus + Original Deu :: CyberTorrent - качай без регистрации!

Партизаны Люцова / Люцовцы / Lützower (Вернер В. Валльрот / Werner W. Wallroth) [1972, ГДР, исторический, военный, HDTVRip] + Sub Rus + Original Deu

Ответить на тему
Статистика раздачи
Размер:  1,37 GB   |    Зарегистрирован:  2 месяца 29 дней   |    Скачан:  0 раз

Полного источника не было: Никогда

   
 
Автор Сообщение

serzh ®

Пол: Не указан

Стаж: 3 месяца 4 дня

Сообщений: 270

Создавать темы 18-Мар-2019 09:58

[Цитировать]

Партизаны Люцова / Люцовцы / Lützower
Страна: ГДР
Жанр: исторический, военный
Год выпуска: 1972
Продолжительность: 01:28:04
Перевод: Субтитры
Субтитры: русские
Оригинальная аудиодорожка: немецкий
Режиссер: Вернер В. Валльрот / Werner W. Wallroth
В ролях: Юрген Рейтер, Герта Кноль, Лев Прыгунов, Еки Шварц, Карлхайнц Лиферс, Вольфганг Делер, Франк Оберманн, Йоханнес Вик, Олег Видов, Хайнц-Мартин Бенеке, Ганс Тойшер, Петер Ройзе
Описание: 1813 год. На территории Германии продолжаются боевые действия русско-прусской армии против армии Наполеона. В тылу французской армии возле саксонского городка действует партизанский отряд (Freikorps) майора Адольфа фон Люцова...
Доп. информация: Фильм снят по пьесе "Люцовцы" (Lützower) (1955) немецкой писательницы Хедды Циннер.
Немецкие субтитры найдены в сети. Перевод и редактирование - petpav
Благодарность sss777sss за предоставленный рип.
Сэмпл:http://sendfile.su/1480667
Качество видео: HDTVRip
Формат видео: AVI
Видео: MPEG-4 Visual at 2 024 kb/s, 704x320 at 25.000 fps
Аудио: AC-3 at 192 Кбит/сек, 2 канала, 48,0 КГц
Формат субтитров: softsub (SRT)

Образец субтитров

14
00:05:46,740 --> 00:05:48,420
Дай мне рубашку!
15
00:05:48,660 --> 00:05:50,260
Помоги мне!
16
00:07:35,100 --> 00:07:37,860
- Откуда стреляют?
- Оттуда!
17
00:07:38,100 --> 00:07:40,180
С площади вокруг башни.
18
00:07:40,420 --> 00:07:43,559
- Майор в доме?
- Уже вышел, но есть сержант Флерон.
19
00:07:43,659 --> 00:07:44,583
Что мне делать?
20
00:07:47,404 --> 00:07:49,012
Я хочу, чтобы ты вернулся.
21
00:07:49,112 --> 00:07:52,075
Я тоже. Смутные времена.
22
00:07:52,679 --> 00:07:53,420
Осторожно!
23
00:07:54,467 --> 00:07:55,423
Болван.
24
00:08:13,320 --> 00:08:16,600
Не жалейте слов, Трауберг!
25
00:08:16,840 --> 00:08:21,680
Мы отправляем им деньги
и поставляем форму.
26
00:08:21,788 --> 00:08:25,125
Не надо рисковать.
Люцов перехватил два транспорта.
27
00:08:25,853 --> 00:08:27,164
Наши цены ниже.
28
00:08:42,443 --> 00:08:45,527
- Ты разговаривал с Мари?
- Она не дает мне надежды.
29
00:08:47,128 --> 00:08:50,775
- Она полна романтических идей.
- Это мне тоже кажется.
30
00:08:50,875 --> 00:08:54,268
Бизнес с французами называет
изменой отечеству.[/pre]

MediaInfo

General
Complete name : D:\Download\Lutzower.1972\Lutzower.1972.avi
Format : AVI
Format/Info : Audio Video Interleave
File size : 1.37 GiB
Duration : 1 h 28 min
Overall bit rate : 2 223 kb/s
Writing application : VirtualDubMod 1.5.4.1 (build 2178/release)
Writing library : VirtualDubMod build 2178/release
Video
ID : 0
Format : MPEG-4 Visual
Format profile : Advanced Simple@L5
Format settings : Custom Matrix
Format settings, BVOP : No
Format settings, QPel : No
Format settings, GMC : No warppoints
Format settings, Matrix : Custom
Codec ID : XVID
Codec ID/Hint : XviD
Duration : 1 h 28 min
Bit rate : 2 024 kb/s
Width : 704 pixels
Height : 320 pixels
Display aspect ratio : 2.2:1
Frame rate : 25.000 FPS
Color space : YUV
Chroma subsampling : 4:2:0
Bit depth : 8 bits
Scan type : Progressive
Compression mode : Lossy
Bits/(Pixel*Frame) : 0.359
Stream size : 1.25 GiB (91%)
Writing library : XviD 67
Audio
ID : 1
Format : AC-3
Format/Info : Audio Coding 3
Format settings, Endianness : Big
Codec ID : 2000
Duration : 1 h 28 min
Bit rate mode : Constant
Bit rate : 192 kb/s
Channel(s) : 2 channels
Channel positions : Front: L R
Sampling rate : 48.0 kHz
Frame rate : 31.250 FPS (1536 SPF)
Bit depth : 16 bits
Compression mode : Lossy
Stream size : 121 MiB (9%)
Alignment : Split accross interleaves
Interleave, duration : 96 ms (2.40 video frames)
Interleave, preload duratio : 96 ms
Service kind : Complete Main

Скриншот c названием фильма

Скриншоты




[cybertorrent.ru].t377.torrent 
Торрент: Зарегистрирован [ 2019-03-18 10:04 ] · C75083B2FB1375D9E65577A12CFFC65C1E2FF1EF

Скачать .torrent

Скачать

14 KB

Статус: проверено
Скачан: 0 раз
Размер: 1,37 GB
terms.php
[Профиль] [ЛС]
Показать сообщения:    
Ответить на тему

Текущее время: 16-Июн 19:37

Часовой пояс: UTC ± 0



Вы не можете начинать темы
Вы не можете отвечать на сообщения
Вы не можете редактировать свои сообщения
Вы не можете удалять свои сообщения
Вы не можете голосовать в опросах
Вы не можете прикреплять файлы к сообщениям
Вы можете скачивать файлы