Дом Солнца (Гарик Сукачев) [2009, драма, BDRip]

Ответить на тему
Статистика раздачи
Размер:  745 MB   |    Зарегистрирован:  5 месяцев   |    Скачан:  0 раз

Полного источника не было: Никогда

   
 
Автор Сообщение

Rodin ®

Пол: Не указан

Стаж: 5 месяцев 6 дней

Сообщений: 226

Создавать темы 18-Мар-2019 09:58

[Цитировать]

Дом Солнца
Год выпуска: 2009
Жанр: драма
Продолжительность: 01:38:56.940 (142344 frames)
Субтитры: нет
Режиссер: Гарик Сукачев
В ролях: Станислав Рядинский, Светлана Иванова, Дарья Мороз, Иван Стебунов, Моисес Бланко, Кирилл Поликашин, Алексей Горбунов, Ольга Блок-Миримская, Александр Мохов, Анатолий Смиранин (II), Никита Высоцкий, Михаил Ефремов, Иван Макаревич, Даниил Маргулис, Александр Королёв, Велимир Русаков, Сергей Баталов, Нелли Неведина, Владимир Теплышев (Дзен-Баптист), Михаил Горевой, Иван Охлобыстин, Алексей Панин
Описание: Неожиданная встреча Саши с лидером хиппи Солнцем изменила ее всегда такую правильную, распланированную и благополучную жизнь. Не сказав ни слова родителям и своему перспективному жениху, Саша отправляется на юг, навстречу своей судьбе вместе с Солнцем - таинственным героем - и его странноватыми, увешанными "фенечками" друзьями: фарцовщиком Малым, чилийским революционером Хуаном, суровой и честной Гердой, длинноволосым Скелетом. На юге - совсем другая жизнь, невероятная для семнадцатилетней девочки из “приличной семьи”. Ржавые заброшенные корабли - местные дискотеки с никому не известной “западной” музыкой, пиратское радио от диджея “Баба Беда”, за которой охотится, но никак не может найти вся местная милиция, и таинственный дом Солнца, где-то высоко в горах...
Качество: BDRip
Формат: AVI
Видео кодек: XviD
Аудио кодек: МР3
Видео: 688x288 (2.39:1), 23.976 fps, XviD build 73 ~915 kbps avg, 0.19 bit/pixel
Аудио: 48 kHz, MPEG Layer 3, 2 ch, ~128.00 kbps avg

Скриншоты

Медиаинфо

General
Complete name : E:\004 Мои раздачи\Дом солнца 745\dom_solnca_745_by_bm11.avi
Format : AVI
Format/Info : Audio Video Interleave
File size : 745 MiB
Duration : 1h 38mn
Overall bit rate : 1 053 Kbps
Director : bm11
Writing application : VirtualDubMod 1.5.10.3 | www.virtualdub-fr.org || (build 2550/release)
Video
ID : 0
Format : MPEG-4 Visual
Format profile : Advanced Simple@L5
Format settings, BVOP : 1
Format settings, QPel : No
Format settings, GMC : No warppoints
Format settings, Matrix : Custom
Codec ID : XVID
Codec ID/Hint : XviD
Duration : 1h 38mn
Bit rate : 916 Kbps
Width : 688 pixels
Height : 288 pixels
Display aspect ratio : 2.40:1
Frame rate : 23.976 (23976/1000) fps
Color space : YUV
Chroma subsampling : 4:2:0
Bit depth : 8 bits
Scan type : Progressive
Compression mode : Lossy
Bits/(Pixel*Frame) : 0.193
Stream size : 648 MiB (87%)
Writing library : XviD 73
Audio
ID : 1
Format : MPEG Audio
Format version : Version 1
Format profile : Layer 3
Codec ID : 55
Codec ID/Hint : MP3
Duration : 1h 38mn
Bit rate mode : Constant
Bit rate : 128 Kbps
Channel(s) : 2 channels
Sampling rate : 48.0 KHz
Compression mode : Lossy
Stream size : 90.6 MiB (12%)
Alignment : Aligned on interleaves
Interleave, duration : 42 ms (1.00 video frame)
Interleave, preload duratio : 504 ms
Writing library : LAME3.99r
Encoding settings : -m s -V 4 -q 2 -lowpass 17 -b 128
[cybertorrent.ru].t381.torrent 
Торрент: Зарегистрирован [ 2019-03-18 10:04 ] · FA6EEA9E05DD69CE8B9AE0D3683E70809FC2E662

Скачать .torrent

Скачать

15 KB

Статус: проверено
Скачан: 0 раз
Размер: 745 MB
terms.php
[Профиль] [ЛС]
Показать сообщения:    
Ответить на тему

Текущее время: 19-Авг 03:48

Часовой пояс: UTC ± 0



Вы не можете начинать темы
Вы не можете отвечать на сообщения
Вы не можете редактировать свои сообщения
Вы не можете удалять свои сообщения
Вы не можете голосовать в опросах
Вы не можете прикреплять файлы к сообщениям
Вы можете скачивать файлы