Спасти Ленинград (Алексей Козлов) [2019, драма, военный, WEB-DLRip]

Ответить на тему
Статистика раздачи
Размер:  1,46 GB   |    Зарегистрирован:  5 месяцев   |    Скачан:  0 раз

Полного источника не было: Никогда

   
 
Автор Сообщение

Rodin ®

Пол: Не указан

Стаж: 5 месяцев 6 дней

Сообщений: 226

Создавать темы 18-Мар-2019 09:58

[Цитировать]

Спасти Ленинград
Страна: Россия
Жанр: драма, военный
Год выпуска: 2019
Продолжительность: 01:37:13
Субтитры: нет-Режиссер: Алексей Козлов-В ролях: Мария Мельникова, Андрей Миронов-Удалов, Гела Месхи, Анастасия Мельникова, Сергей Жарков, Иван Лырчиков, Валерий Дегтярь, Михаил Морозов, Николай Горшков, Евгения Любимова-Описание: Сентябрь 1941 года. Юные влюбленные Костя и Настя волею обстоятельств оказываются на барже, которая должна вывезти людей из блокадного Ленинграда. Ночью судно попадает в шторм и терпит бедствие, на месте трагедии первыми оказываются вовсе не спасатели, а вражеские самолеты.- -Качество видео: WEB-DLRip
Формат видео: AVI
Видео: 720x304 (2.37:1), 24.000 fps, XviD build 73 ~1752 kbps avg, 0.33 bit/pixel
Аудио: 48 kHz, AC3 Dolby Digital, 3/2 (L,C,R,l,r) + LFE ch, ~384 kbps - iTunes-[box]Сэмпл[/box]-

MediaInfo

Код:Формат : AVI
Формат/Информация : Audio Video Interleave
Профиль формата : OpenDML
Размер файла : 1,46 Гбайт
Продолжительность : 1 ч. 37 м.
Общий поток : 2144 Кбит/сек
Программа кодирования : XviD4PSP 6.0 / 54.27.101
Видео
Идентификатор : 0
Формат : MPEG-4 Visual
Профиль формата : Advanced Simple@L5
Настройки формата : BVOP2 / Custom Matrix
Параметр BVOP формата : 2
Параметр QPel формата : Нет
Параметр GMC формата : Без точки перехода
Параметр матрицы формата : Выборочная
Идентификатор кодека : XVID
Идентификатор кодека/Подсказка : XviD
Продолжительность : 1 ч. 37 м.
Битрейт : 1748 Кбит/сек
Ширина : 720 пикселей
Высота : 304 пикселя
Соотношение сторон : 2,35:1
Частота кадров : 24,000 кадра/сек
Цветовое пространство : YUV
Субдискретизация насыщенности : 4:2:0
Битовая глубина : 8 бит
Тип развёртки : Прогрессивная
Метод сжатия : С потерями
Бит/(Пиксели*Кадры) : 0.333
Размер потока : 1,19 Гбайт (82%)
Библиотека кодирования : XviD 73
Аудио
Идентификатор : 1
Формат : AC-3
Формат/Информация : Audio Coding 3
Коммерческое название : Dolby Digital
Идентификатор кодека : 2000
Продолжительность : 1 ч. 37 м.
Вид битрейта : Постоянный
Битрейт : 384 Кбит/сек
Каналы : 6 каналов
Channel layout : L R C LFE Ls Rs
Частота : 48,0 КГц
Частота кадров : 31,250 кадров/сек (1536 SPF)
Битовая глубина : 16 бит
Метод сжатия : С потерями
Размер потока : 267 Мбайт (18%)
Выравнивание : Соединение по промежуткам
Продолжительность промежутка : 32 мс. (0,77 видеокадр)
ServiceKind/String : Complete Main

Скриншоты


[cybertorrent.ru].t386.torrent 
Торрент: Зарегистрирован [ 2019-03-18 10:04 ] · 6A6AB6E929C93AFB2BF44D916FEF71343A36FC42

Скачать .torrent

Скачать

15 KB

Статус: проверено
Скачан: 0 раз
Размер: 1,46 GB
terms.php
[Профиль] [ЛС]
Показать сообщения:    
Ответить на тему

Текущее время: 19-Авг 00:25

Часовой пояс: UTC ± 0



Вы не можете начинать темы
Вы не можете отвечать на сообщения
Вы не можете редактировать свои сообщения
Вы не можете удалять свои сообщения
Вы не можете голосовать в опросах
Вы не можете прикреплять файлы к сообщениям
Вы можете скачивать файлы