Длинное, длинное дело (Григорий Аронов, Владимир Шредель) [1976, драма, криминал, TVRip] + Sub Rus

Ответить на тему
Статистика раздачи
Размер:  1,37 GB   |    Зарегистрирован:  2 месяца 28 дней   |    Скачан:  0 раз

Полного источника не было: Никогда

   
 
Автор Сообщение

edich ®

Пол: Не указан

Стаж: 3 месяца 3 дня

Сообщений: 91

Создавать темы 18-Мар-2019 09:58

[Цитировать]

Длинное, длинное дело
Студия: Ленфильм
Жанр: драма, криминал
Год выпуска: 1976
Продолжительность: 01:26:52
Режиссер: Григорий Аронов, Владимир Шредель
В ролях: Евгений Леонов, Владимир Заманский, Михаил Глузский, Олег Янковский, Олег Белов, Николай Караченцов, Нина Ургант, Светлана Карпинская, Роман Мадянов, Вячеслав Васильев, Николай Гаврилов, Рита Гладунко, Светлана Кетлерова, Аскольд Конович, Нина Мамаева, Юрий Мальцев, Валерий Ольшанский, Виктор Перевалов, Валентина Пугачёва, Валентина Сперантова, Любовь Тищенко, Николай Федорцов, Лариса Игнатенко, Владимир Волчик, Олег Хроменков, Владимир Марков
Описание: Скромный работник районной прокуратуры никогда не был душой компании. С точки зрения коллег, достоинство у него было только одно - серьезный подход к работе, тщательность, внимание к деталям при расследовании происшествий. Когда к нему попадает очередное уголовное дело, сотрудники советуют долго не возиться, ведь там все ясно, примитивнейший случай. И расследовать там особо нечего. Все фигуранты известны. Виновные - тоже. Надо только оформить документы. Но щепетильный сыщик их не слушает. Он берется за работу и распутывает преступление, которое оказывается очень серьезным и запутанным. Коллеги только удивляются, что такой мягкий человек может проявить твердость и дать отпор любому, кто посягнет на человеческую жизнь, преступит закон.
Дополнительная информация:
Автор релиза -
Источник для рипа - DVB 576i TS - запись с канала "Звезда" от Cheef mate
Источник субтитров - DVB 576i TS - моя запись с канала "ТВ Центр"
Авторы русских субтитров - Вориводина Л.Н., Ситник А.В. / "ТВ Центр", 2011г.




Рекламы нет!
Качество видео: TVRip
Формат видео: AVI
Видео: XviD, 688x320 (2,2:1), 25.000 fps, 2059 kbps, 0.374 bit/pixel
Аудио: Русский АС3, 48000 Гц, 2ch, 192 kbps
Формат субтитров: softsub (SRT)

MediaInfo

Общее
Полное имя : D:\Длинное.длинное.дело.1976.TVRip-ylnian\Длинное.длинное.дело.1976.TVRip-ylnian.avi
Формат : AVI
Формат/Информация : Audio Video Interleave
Размер файла : 1,37 Гбайт
Продолжительность : 1 ч. 26 м.
Общий поток : 2261 Кбит/сек
Программа кодирования : VirtualDubMod 1.5.10.3 | www.virtualdub-fr.org || (build 2550/release)
Библиотека кодирования : VirtualDubMod build 2550/release
Видео
Идентификатор : 0
Формат : MPEG-4 Visual
Профиль формата : Advanced Simple@L5
Настройки формата : BVOP1 / Custom Matrix
Параметр BVOP формата : 1
Параметр QPel формата : Нет
Параметр GMC формата : Без точки перехода
Параметр матрицы формата : Выборочная
Идентификатор кодека : XVID
Идентификатор кодека/Подсказка : XviD
Продолжительность : 1 ч. 26 м.
Битрейт : 2059 Кбит/сек
Ширина : 688 пикселей
Высота : 320 пикселей
Соотношение сторон : 2,2:1
Частота кадров : 25,000 кадров/сек
Цветовое пространство : YUV
Субдискретизация насыщенности : 4:2:0
Битовая глубина : 8 бит
Тип развёртки : Прогрессивная
Метод сжатия : С потерями
Бит/(Пиксели*Кадры) : 0.374
Размер потока : 1,25 Гбайт (91%)
Библиотека кодирования : XviD 67
Аудио
Идентификатор : 1
Формат : AC-3
Формат/Информация : Audio Coding 3
Коммерческое название : Dolby Digital
Идентификатор кодека : 2000
Продолжительность : 1 ч. 26 м.
Вид битрейта : Постоянный
Битрейт : 192 Кбит/сек
Каналы : 2 канала
Channel layout : L R
Частота : 48,0 КГц
Частота кадров : 31,250 кадров/сек (1536 SPF)
Битовая глубина : 16 бит
Метод сжатия : С потерями
Размер потока : 119 Мбайт (8%)
Выравнивание : Разделение по промежуткам
Продолжительность промежутка : 40 мс. (1,00 видеокадр)
Время предзагрузки промежутка : 500 мс.
ServiceKind/String : Complete Main
Общее
Полное имя : D:\Длинное.длинное.дело.1976.TVRip-ylnian\Длинное.длинное.дело.1976.TVRip-ylnian_rus.srt
Размер файла : 95,1 Кбайт
[cybertorrent.ru].t393.torrent 
Торрент: Зарегистрирован [ 2019-03-18 10:04 ] · A8D513446B14FB2A3C24EC6C22E9F389B514C4AD

Скачать .torrent

Скачать

14 KB

Статус: проверено
Скачан: 0 раз
Размер: 1,37 GB
terms.php
[Профиль] [ЛС]
Показать сообщения:    
Ответить на тему

Текущее время: 16-Июн 08:39

Часовой пояс: UTC ± 0



Вы не можете начинать темы
Вы не можете отвечать на сообщения
Вы не можете редактировать свои сообщения
Вы не можете удалять свои сообщения
Вы не можете голосовать в опросах
Вы не можете прикреплять файлы к сообщениям
Вы можете скачивать файлы