Джо-солдат: Настоящий американский герой / G.I. Joe: The Movie (Don Jurwich / Дон Юрвич.) [1987, Япония, США., боевик, приключения, мультфильм, BDRip] AVO Андрей Дольский

Ответить на тему
Статистика раздачи
Размер:  1,37 GB   |    Зарегистрирован:  4 месяца 2 дня   |    Скачан:  0 раз

Полного источника не было: Никогда

   
 
Автор Сообщение

karlll ®

Пол: Не указан

Стаж: 4 месяца 8 дней

Сообщений: 149

Создавать темы 18-Мар-2019 09:58

[Цитировать]

Джо-солдат: Настоящий американский герой / G.I. Joe: The Movie
Страна: Япония, США
Жанр: боевик, приключения, мультфильм
Год выпуска: 1987
Продолжительность: 01:33:30

Перевод: Авторский (одноголосый закадровый) Андрей Дольский
Субтитры: нет
Режиссёр: Don Jurwich / Дон Юрвич
Роли озвучивали: Чарльз Адлер, Шуко Акуне, Джек Эйнджел, Джексон Бек, Майкл Белл, Грегг Бергер, Эрл Боэн, Артур Бергхардт, Кори Бертон
Описание: Аид — властитель загробного мира. Много лет назад он был фактически сослан своим старшим братом Зевсом в глубины Ада и теперь намерен наверстать упущенное, собрав армию монстров и захватив Олимп. Единственный, кто может помешать Аиду — сын Зевса, юный Геркулес, поэтому прислужники злодея похищают младенца и превращают его в простого смертного. Спустя много лет юноша узнает о своем происхождении и ставит целью вернуться домой, но для этого ему придется совершить немало подвигов и стать настоящим героем. Но, как выясняется, даже победы над силами зла недостаточно, чтобы вернуть божественное начало...
Семпл: http://multi-up.com/1225572
Качество: BDRip (Исходник BDRemux 1080p)
Формат: AVI
Видео: XviD 73, 704x400, (16:9), 23,976 fps, 1873 Кбит/с, 8 бит, 0.28 bit/pixel
Аудио: Русский (AC-3, 2 ch (Front: L R), 48,0 KHz, 224 Kbps)

MediaInfo

Общее
Полное имя : D:\Фильмы на трекер\Джо - солдат Настоящий американский герой (мультфильм, приключения 1987 год).avi
Формат : AVI
Формат/Информация : Audio Video Interleave
Размер файла : 1,37 Гбайт
Продолжительность : 1 ч. 33 м.
Общий поток : 2106 Кбит/сек
Программа кодирования : VirtualDubMod 1.5.10.3 | www.virtualdub-fr.org || (build 2550/release)
Библиотека кодирования : VirtualDubMod build 2550/release
Видео
Идентификатор : 0
Формат : MPEG-4 Visual
Профиль формата : Advanced Simple@L5
Параметр BVOP формата : 2
Параметр QPel формата : Нет
Параметр GMC формата : Без точки перехода
Параметр матрицы формата : Выборочная
Идентификатор кодека : XVID
Идентификатор кодека/Подсказка : XviD
Продолжительность : 1 ч. 33 м.
Битрейт : 1873 Кбит/сек
Ширина : 704 пикселя
Высота : 400 пикселей
Соотношение сторон : 16:9
Частота кадров : 23,976 (23976/1000) кадра/сек
Цветовое пространство : YUV
Субдискретизация насыщенности : 4:2:0
Битовая глубина : 8 бит
Тип развёртки : Прогрессивная
Метод сжатия : С потерями
Бит/(Пиксели*Кадры) : 0.277
Размер потока : 1,22 Гбайт (89%)
Библиотека кодирования : XviD 73
Аудио
Идентификатор : 1
Формат : AC-3
Формат/Информация : Audio Coding 3
Расширение режима : CM (complete main)
Параметр Endianness формата : Big
Идентификатор кодека : 2000
Продолжительность : 1 ч. 33 м.
Вид битрейта : Постоянный
Битрейт : 224 Кбит/сек
Каналы : 2 канала
Расположение каналов : Front: L R
Частота : 48,0 КГц
Частота кадров : 31,250 кадров/сек (1536 spf)
Метод сжатия : С потерями
Размер потока : 150 Мбайт (11%)
Выравнивание : Разделение по промежуткам
Продолжительность промежутка : 42 мс. (1,00 видеокадр)
Время предзагрузки промежутка : 500 мс.

Скриншот c названием фильма

Скриншоты

[cybertorrent.ru].t394.torrent 
Торрент: Зарегистрирован [ 2019-03-18 10:04 ] · 51452CFB33B5A4EEE8B9F11268FC053F3DF251F9

Скачать .torrent

Скачать

14 KB

Статус: проверено
Скачан: 0 раз
Размер: 1,37 GB
terms.php
[Профиль] [ЛС]
Показать сообщения:    
Ответить на тему

Текущее время: 21-Июл 02:07

Часовой пояс: UTC ± 0



Вы не можете начинать темы
Вы не можете отвечать на сообщения
Вы не можете редактировать свои сообщения
Вы не можете удалять свои сообщения
Вы не можете голосовать в опросах
Вы не можете прикреплять файлы к сообщениям
Вы можете скачивать файлы