Трудный путь / The Hard Way (Киони Ваксман / Keoni Waxman) [2019, США,боевик, WEBRip] Sub Rus + Original Eng

Ответить на тему
Статистика раздачи
Размер:  1,46 GB   |    Зарегистрирован:  5 месяцев 30 дней   |    Скачан:  0 раз

Полного источника не было: Никогда

   
 
Автор Сообщение

Lew ®

Пол: Не указан

Стаж: 6 месяцев 5 дней

Сообщений: 415

Создавать темы 18-Мар-2019 09:57

[Цитировать]

Трудный путь / The Hard Way Страна: США
Жанр: Боевик
Год выпуска: 2019
Продолжительность: 01:33:41

Перевод: Субтитры
Субтитры: Полные русские - отдельно
Оригинальная аудиодорожка: Английский
Режиссер: Киони Ваксман / Keoni Waxman
В ролях: Рэнди Кутюр, Люк Госс, Джордж Ремис, Майкл Джей Уайт
Описание: Узнав, что его брат погиб на миссии в Румынии, бывший солдат объединяется с двумя союзниками, чтобы выследить загадочного врага и отомстить.
Сэмпл: http://multi-up.com/1225640
Качество видео: WEBRip
Исходник: The.Hard.Way.2019.1080p.NF.WEBRip.DD5.1.x264-CM
Формат видео: AVI
Видео: 720x400 (1.80:1), 23.976 fps, XviD build 65 ~1835 kbps avg, 0.27 bit/pixel
Аудио: 48 kHz, AC3 Dolby Digital, 3/2 (L,C,R,l,r) + LFE ch, ~384 kbps
Rip by Ториялдля

Пример субтитров

1
00:00:42,834 --> 00:00:45,545
Там. Видишь его? Виг вон там!
2
00:00:45,629 --> 00:00:47,839
Останови машину!
Останови чёртову машину!
3
00:00:53,387 --> 00:00:54,304
Коди!
4
00:00:55,722 --> 00:00:56,640
Эй!
5
00:00:56,723 --> 00:00:57,808
Ну же, Коди.
6
00:00:58,767 --> 00:01:00,060
Коди, хватит!
7
00:01:01,186 --> 00:01:03,188
Эй!
8
00:01:05,482 --> 00:01:06,441
Коди!
9
00:01:11,280 --> 00:01:12,322
Эй!
10
00:01:12,447 --> 00:01:13,490
Стоять!
11
00:01:14,533 --> 00:01:15,951
Мудила!
12
00:01:39,349 --> 00:01:40,267
Чёрт!
13
00:01:42,936 --> 00:01:44,354
Коди!
14
00:01:55,532 --> 00:01:56,617
Вот дерьмо.
15
00:01:56,700 --> 00:01:58,160
Держись, дружище.
16
00:02:03,624 --> 00:02:04,583
Это же я.
17
00:02:04,666 --> 00:02:07,377
Куда тебя ранили? Всё плохо?
18
00:02:07,544 --> 00:02:09,421
В верхнюю полую вену, братан.
19
00:02:10,714 --> 00:02:12,090
Покажи.
20
00:02:12,174 --> 00:02:13,258
Господи.
21
00:02:14,009 --> 00:02:15,177
Посмотри на нее.
22
00:02:15,260 --> 00:02:16,303
Он убил эту девушку.

MediaInfo

Format : AVI
Format/Info : Audio Video Interleave
File size : 1.46 GiB
Duration : 1 h 33 min
Overall bit rate : 2 229 kb/s
Writing application : VirtualDubMod 1.5.10.3 | www.virtualdub-fr.org || (build 2550/release)
Writing library : VirtualDubMod build 2550/release
Video
ID : 0
Format : MPEG-4 Visual
Format profile : Advanced Simple@L5
Format settings : BVOP1 / Custom Matrix
Format settings, BVOP : 1
Format settings, QPel : No
Format settings, GMC : No warppoints
Format settings, Matrix : Custom
Codec ID : XVID
Codec ID/Hint : XviD
Duration : 1 h 33 min
Bit rate : 1 835 kb/s
Width : 720 pixels
Height : 400 pixels
Display aspect ratio : 16:9
Frame rate : 23.976 (24000/1001) FPS
Original frame rate : 23.979 FPS
Color space : YUV
Chroma subsampling : 4:2:0
Bit depth : 8 bits
Scan type : Progressive
Compression mode : Lossy
Bits/(Pixel*Frame) : 0.266
Stream size : 1.20 GiB (82%)
Writing library : XviD 65
Audio
ID : 1
Format : AC-3
Format/Info : Audio Coding 3
Commercial name : Dolby Digital
Codec ID : 2000
Duration : 1 h 33 min
Bit rate mode : Constant
Bit rate : 384 kb/s
Channel(s) : 6 channels
Channel positions : Front: L C R, Side: L R, LFE
Sampling rate : 48.0 kHz
Frame rate : 31.250 FPS (1536 SPF)
Bit depth : 16 bits
Compression mode : Lossy
Stream size : 257 MiB (17%)
Alignment : Split accross interleaves
Interleave, duration : 42 ms (1.00 video frame)
Interleave, preload duratio : 500 ms
Service kind : Complete Main

Скриншоты

[cybertorrent.ru].t395.torrent 
Торрент: Зарегистрирован [ 2019-03-18 10:04 ] · CC32673664CD9E26AFD3A511254C90B57213BC5D

Скачать .torrent

Скачать

15 KB

Статус: проверено
Скачан: 0 раз
Размер: 1,46 GB
terms.php
[Профиль] [ЛС]
Показать сообщения:    
Ответить на тему

Текущее время: 17-Сен 18:55

Часовой пояс: UTC ± 0



Вы не можете начинать темы
Вы не можете отвечать на сообщения
Вы не можете редактировать свои сообщения
Вы не можете удалять свои сообщения
Вы не можете голосовать в опросах
Вы не можете прикреплять файлы к сообщениям
Вы можете скачивать файлы

Партнеры

Выражаем благодарность всем людям, внесшим вклад в наш сайт в далёком прошлом. Мы помним Вас, гордимся Вами и ждём Вас обратно!

Интересное в сети