Стиляги (Валерий Тодоровский) [2008, комедия, драма, мюзикл, BDRip]

Ответить на тему
Статистика раздачи
Размер:  1,46 GB   |    Зарегистрирован:  4 месяца 2 дня   |    Скачан:  0 раз

Полного источника не было: Никогда

   
 
Автор Сообщение

Rodin ®

Пол: Не указан

Стаж: 4 месяца 8 дней

Сообщений: 177

Создавать темы 18-Мар-2019 09:57

[Цитировать]

Стиляги
Год выпуска: 2008
Жанр: комедия, драма, мюзикл
Продолжительность: 02:16:24.480 (196231 frames)
Субтитры: нет
Режиссер: Валерий Тодоровский
В ролях: Оксана Акиньшина, Антон Шагин, Сергей Гармаш, Алексей Горбунов, Евгения Хиривская, София Лебедева, Максим Матвеев, Мария Мина, Олег Пангсепп, Максим Пешков, Ирина Розанова, Михаил Сиворин, Александра Стрельчина, Евгения Суворкина, Екатерина Вилкова, Эльвира Волошина, Игорь Войнаровский, Олег Янковский, Леонид Ярмольник, Алеся Пуховая, Сергей Ларин, Александр Стефанцов, Людмила Соловьева
Описание: В Москве 1955-56 годов общество переживало совершенно особый период. Сталина уже не было в живых, но XX съезда и разоблачения его культа личности еще не произошло. Некоторые молодые люди, мечтавшие о яркой жизни, не похожей на серые будни СССР, стали так называемыми «стилягами» – поклонниками далекого запада, слушающими рок-н-ролл и джаз, любящими яркую одежду и модные за рубежом танцы. Разумеется, это далеко не всем было по душе: не только старшее поколение, но и образцовая советская молодежь возмущенно взирала на собиравшихся на улице Горького стиляг, а некоторые даже устраивали на них облаву. Одним из них был и комсомолец Мэлс, которого во время очередного «рейда» на стиляг угораздило с первого взгляда влюбиться в симпатичную Полину – «Пользу» для своих. Она позвала его на стиляжий «Бродвей», улицу Горького, где собирались стиляги, и Мэлс понемногу стал проникаться их свободолюбивым духом и даже стал одним из них. Но долго ли продлится такая жизнь?
Качество: BDRip
Формат: AVI
Видео кодек: XviD
Аудио кодек: АС3
Видео: 720x304 (2.37:1), 23.976 fps, XviD build 73 ~1328 kbps avg, 0.25 bit/pixel
Аудио: 48 kHz, AC3 Dolby Digital, 2/0 (L,R) ch, ~192.00 kbps avg

Медиаинфо

General
Complete name : E:\004 Мои раздачи\Стиляги 1,46\stilyagi_1.46_by_bm11.avi
Format : AVI
Format/Info : Audio Video Interleave
File size : 1.46 GiB
Duration : 2h 16mn
Overall bit rate : 1 530 Kbps
Director : bm11
Writing application : VirtualDubMod 1.5.10.3 | www.virtualdub-fr.org || (build 2550/release)
Video
ID : 0
Format : MPEG-4 Visual
Format profile : Advanced Simple@L5
Format settings, BVOP : 1
Format settings, QPel : No
Format settings, GMC : No warppoints
Format settings, Matrix : Custom
Codec ID : XVID
Codec ID/Hint : XviD
Duration : 2h 16mn
Bit rate : 1 329 Kbps
Width : 720 pixels
Height : 304 pixels
Display aspect ratio : 2.35:1
Frame rate : 23.976 (23976/1000) fps
Color space : YUV
Chroma subsampling : 4:2:0
Bit depth : 8 bits
Scan type : Progressive
Compression mode : Lossy
Bits/(Pixel*Frame) : 0.253
Stream size : 1.27 GiB (87%)
Writing library : XviD 73
Audio
ID : 1
Format : AC-3
Format/Info : Audio Coding 3
Mode extension : CM (complete main)
Format settings, Endianness : Big
Codec ID : 2000
Duration : 2h 16mn
Bit rate mode : Constant
Bit rate : 192 Kbps
Channel(s) : 2 channels
Channel positions : Front: L R
Sampling rate : 48.0 KHz
Frame rate : 31.250 fps (1536 spf)
Compression mode : Lossy
Stream size : 187 MiB (13%)
Alignment : Split accross interleaves
Interleave, duration : 42 ms (1.00 video frame)
Interleave, preload duratio : 500 ms

Сравнение

http://cybertorrent.ru/forum/viewtopic.php?t=4896811
старый рип не мод16 и с необрезанными черными полями
[cybertorrent.ru].t396.torrent 
Торрент: Зарегистрирован [ 2019-03-18 10:04 ] · 3C1340AAB6039403CA15C8F33303707B4F0A48AD

Скачать .torrent

Скачать

15 KB

Статус: проверено
Скачан: 0 раз
Размер: 1,46 GB
terms.php
[Профиль] [ЛС]
Показать сообщения:    
Ответить на тему

Текущее время: 21-Июл 03:31

Часовой пояс: UTC ± 0



Вы не можете начинать темы
Вы не можете отвечать на сообщения
Вы не можете редактировать свои сообщения
Вы не можете удалять свои сообщения
Вы не можете голосовать в опросах
Вы не можете прикреплять файлы к сообщениям
Вы можете скачивать файлы