Три мушкетёра (Сергей Жигунов) [2013, приключения, BDRip]

Ответить на тему
Статистика раздачи
Размер:  1,46 GB   |    Зарегистрирован:  2 месяца 29 дней   |    Скачан:  0 раз

Полного источника не было: Никогда

   
 
Автор Сообщение

Rodin ®

Пол: Не указан

Стаж: 3 месяца 4 дня

Сообщений: 124

Создавать темы 18-Мар-2019 09:57

[Цитировать]

Три мушкетёра
Год выпуска: 2013
Жанр: приключения
Продолжительность: 02:03:30.714 (177857 frames)
Субтитры: нет
Режиссер: Сергей Жигунов
В ролях: Риналь Мухаметов, Юрий Чурсин, Алексей Макаров, Павел Баршак, Екатерина Вилкова, Анна Старшенбаум, Василий Лановой, Филипп Янковский, Константин Лавроненко, Мария Миронова
Описание: «Три мушкетера» — это история о юном гасконце Д’Артаньяне, который, не познав всех радостей любви, оказывается втянут в водоворот политических интриг королевского двора Людовика XIII. В роте королевских мушкетеров Де Тревиля он находит себе верных друзей Атоса, Портоса и Арамиса. Мушкетеры настолько поражены кипучей энергией гасконца и его умением находить неприятности, что принимают самое живое участие не только в многочисленных стычках с гвардейцами кардинала, но и в личной судьбе Д’Артаньяна. Благодаря друзьям Д’Артаньян находит свою первую любовь — Констанцию Бонасье и ввязывается в опаснейшую историю с подвесками Королевы. Тонкий и дальновидный политик кардинал Ришелье и его подручные Рошфор и Миледи обретают в лице Д’Артаньяна опаснейшего врага. Во имя любви он готов на самые отчаянные подвиги. На пути Д’Артаньяна немало опасных соблазнов и искушений. Но он их все преодолеет, не предав своей дружбы и любви!
Качество: BDRip
Формат: AVI
Видео кодек: XviD
Аудио кодек: АС3
Видео: 720x400 (1.80:1), 24.000 fps, XviD build 73 ~1487 kbps avg, 0.22 bit/pixel
Аудио: 48 kHz, AC3 Dolby Digital, 2/0 (L,R) ch, ~192.00 kbps avg

Медиаинфо

General
Complete name : E:\004 Мои раздачи\3 мушкетера 1,46\3_mushketera_1.46_by_bm11.avi
Format : AVI
Format/Info : Audio Video Interleave
File size : 1.46 GiB
Duration : 2h 3mn
Overall bit rate : 1 689 Kbps
Director : bm11
Writing application : VirtualDubMod 1.5.10.3 | www.virtualdub-fr.org || (build 2550/release)
Video
ID : 0
Format : MPEG-4 Visual
Format profile : Advanced Simple@L5
Format settings, BVOP : 1
Format settings, QPel : No
Format settings, GMC : No warppoints
Format settings, Matrix : Custom
Codec ID : XVID
Codec ID/Hint : XviD
Duration : 2h 3mn
Bit rate : 1 488 Kbps
Width : 720 pixels
Height : 400 pixels
Display aspect ratio : 16:9
Frame rate : 24.000 fps
Color space : YUV
Chroma subsampling : 4:2:0
Bit depth : 8 bits
Scan type : Progressive
Compression mode : Lossy
Bits/(Pixel*Frame) : 0.215
Stream size : 1.28 GiB (88%)
Writing library : XviD 73
Audio
ID : 1
Format : AC-3
Format/Info : Audio Coding 3
Mode extension : CM (complete main)
Format settings, Endianness : Big
Codec ID : 2000
Duration : 2h 3mn
Bit rate mode : Constant
Bit rate : 192 Kbps
Channel(s) : 2 channels
Channel positions : Front: L R
Sampling rate : 48.0 KHz
Frame rate : 31.250 fps (1536 spf)
Compression mode : Lossy
Stream size : 170 MiB (11%)
Alignment : Split accross interleaves
Interleave, duration : 42 ms (1.00 video frame)
Interleave, preload duratio : 500 ms
[cybertorrent.ru].t402.torrent 
Торрент: Зарегистрирован [ 2019-03-18 10:04 ] · D3FD98F113B15F24B8371BF72498C1AD4519668F

Скачать .torrent

Скачать

15 KB

Статус: проверено
Скачан: 0 раз
Размер: 1,46 GB
terms.php
[Профиль] [ЛС]
Показать сообщения:    
Ответить на тему

Текущее время: 16-Июн 19:22

Часовой пояс: UTC ± 0



Вы не можете начинать темы
Вы не можете отвечать на сообщения
Вы не можете редактировать свои сообщения
Вы не можете удалять свои сообщения
Вы не можете голосовать в опросах
Вы не можете прикреплять файлы к сообщениям
Вы можете скачивать файлы