Содержанки / Серии: 1-3 из 8 (Константин Богомолов) [2019, триллер, эротика, WEBRip 720p]

Ответить на тему
Статистика раздачи
Размер:  3,24 GB   |    Зарегистрирован:  1 месяц 4 дня   |    Скачан:  0 раз

Полного источника не было: Никогда

   
 
Автор Сообщение

sss777sss ®

Пол: Не указан

Стаж: 1 месяц 10 дней

Сообщений: 136

Создавать темы 18-Мар-2019 09:57

[Цитировать]

Содержанки
Год выпуска: 2019
Производство: Старт, Yellow, Black and White
Жанр: триллер, эротика
Продолжительность: ~00:54:00 серия
Субтитры: нет
Режиссёр: Константин Богомолов
В ролях: Ольга Сутулова, Дарья Мороз, Мария Фомина, Софья Заика, Сергей Бурунов, Владимир Мишуков, Александр Кузнецов, Марина Зудина, Александр Збруев, Семён Штейнберг, Пётр Скворцов, Леонид Бичевин, Ирина Старшенбаум, Александра Ребенок, Сабина Ахмедова, Игорь Гордин, Роза Хайруллина, Сергей Чонишвили, Александра Ревенко, Ксения Собчак, Светлана Бондарчук, Вадим Верник

Описание: Москва, наши дни. Город больших денег и страстей, великолепных женщин и состоятельных мужчин, светских раутов и опасных интриг. Здесь красивые девушки мечтают попасть в мир гламура, струящихся шелков и сверкающих драгоценностей, а главная светская сваха города ловко пристраивает их в надежные руки. Приехавшая в столицу Даша, искусствовед из провинции, мечтает о новой, лучшей жизни, но загадочное и жестокое происшествие изменит все.

Реклама: Нет.
Кинопоиск
Все раздачи сериала
Sample
Качество: WEBRip 720p - Files-x
Формат: MKV
Видео кодек: H.264
Аудио кодек: AC3
Видео: MPEG4 AVC Video, H264, 16:9, 1280x720, 23.976 fps, ~2900 kbps, 0.131 bit/pixel
Аудио: AC3 Dolby Digital, 48.0 kHz, 2/0 (L,R) ch, 192 kbps

Внимание! Раздача ведётся путём добавления новых серий

Раздача ведётся путём добавления новых серий, при каждом добавлении создаётся новый торрент. Чтобы начать докачку новой серии, пользователям необходимо сделать следующее:
- Остановить скачивание.
- Удалить старый торрент у себя из клиента (старые серии удалять не надо).
- Скачать новый торрент и запустить его у себя в клиенте вместо старого, при этом указать клиенту путь в старую папку куда и должно происходить скачивание новых серий.
Ваш клиент при этом должен произвести хеширование (проверку) старой папки (если не производит сам - помогите ему сделать это), и будет докачивать только те серии которых у вас ещё нет. Старые серии при этом не удаляются, а продолжают раздаваться!
Если вы уже удалили старые серии, то предотвратить повторную закачку старых серий можно, отжав галочку в соответствующих местах при запуске нового торрента. По возможности, желательно не удалять старые серии как можно дольше, чтобы релизер не столько продолжал раздавать старые серии, а смог сконцентрироваться на новых.

MI

General
Unique ID : 190906659947604486319363200363501118251 (0x8F9F49094388087F86907B8D7622E32B)
Complete name : D:\Содержанки. (2019). WEB-DL 720p. Files-x\01.. Содержанки. (2019). WEB-DL 720p. Files-x.mkv
Format : Matroska
Format version : Version 2
File size : 1.20 GiB
Duration : 54 min 18 s
Overall bit rate : 3 155 kb/s
Encoded date : UTC 2019-03-07 12:55:48
Writing application : mkvmerge v7.8.0 ('River Man') 32bit built on Apr 3 2015 12:11:22
Writing library : libebml v1.3.1 + libmatroska v1.4.2
Video
ID : 1
Format : AVC
Format/Info : Advanced Video Codec
Format profile : High@L3.1
Format settings : CABAC / 4 Ref Frames
Format settings, CABAC : Yes
Format settings, ReFrames : 4 frames
Format settings, GOP : M=2, N=15
Codec ID : V_MPEG4/ISO/AVC
Duration : 54 min 18 s
Bit rate : 2 900 kb/s
Width : 1 280 pixels
Height : 720 pixels
Display aspect ratio : 16:9
Frame rate mode : Constant
Frame rate : 23.976 (24000/1001) FPS
Color space : YUV
Chroma subsampling : 4:2:0
Bit depth : 8 bits
Scan type : Progressive
Bits/(Pixel*Frame) : 0.131
Stream size : 1.10 GiB (92%)
Default : Yes
Forced : No
Audio
ID : 2
Format : AC-3
Format/Info : Audio Coding 3
Codec ID : A_AC3
Duration : 54 min 18 s
Bit rate mode : Constant
Bit rate : 192 kb/s
Channel(s) : 2 channels
Channel positions : Front: L R
Sampling rate : 48.0 kHz
Frame rate : 31.250 FPS (1536 SPF)
Bit depth : 16 bits
Compression mode : Lossy
Stream size : 74.6 MiB (6%)
Service kind : Complete Main
Default : Yes
Forced : No

Скриншоты


Если ваш рейтинг упадет ниже 0,3, вы не сможете скачивать торренты! Подробнее о рейтинге.

[cybertorrent.ru].t404.torrent 
Торрент: Зарегистрирован [ 2019-03-18 10:04 ] · 02B0798EA63569972B2193CE00DBA55BE27CB7C3

Скачать .torrent

Скачать

17 KB

Статус: проверено
Скачан: 0 раз
Размер: 3,24 GB
terms.php
[Профиль] [ЛС]
Показать сообщения:    
Ответить на тему

Текущее время: 23-Апр 06:14

Часовой пояс: UTC ± 0



Вы не можете начинать темы
Вы не можете отвечать на сообщения
Вы не можете редактировать свои сообщения
Вы не можете удалять свои сообщения
Вы не можете голосовать в опросах
Вы не можете прикреплять файлы к сообщениям
Вы можете скачивать файлы