Миллион в брачной корзине (Всеволод Шиловский) [1985, комедия, SATRip]

Ответить на тему
Статистика раздачи
Размер:  1,46 GB   |    Зарегистрирован:  2 месяца 29 дней   |    Скачан:  0 раз

Полного источника не было: Никогда

   
 
Автор Сообщение

edich ®

Пол: Не указан

Стаж: 3 месяца 4 дня

Сообщений: 92

Создавать темы 18-Мар-2019 09:57

[Цитировать]

Миллион в брачной корзине
Год выпуска: 1985
Жанр: комедия
Продолжительность: 01:28:53.359 (133334 frames)
Субтитры: нет
Режиссер: Всеволод Шиловский
В ролях: Александр Ширвиндт, Софико Чиаурели, Галина Соколова, Игорь Богодух, Лариса Удовиченко, Ольга Кабо, Алексей Яковлев, Анатолий Хостикоев, Елена Аминова, Семен Фарада, Валентин Никулин, Николай Гринько
Описание: Для такой профессии у Александра Ширвиндта есть все необходимые данные. Импозантная внешность, приятные манеры, обаяние. Заметив свадьбу или крестины, он под видом одного из гостей, присвоив себе чин полковника и нацепив купленные по случаю ордена, проникает на торжество и наполняет потайные карманы и сумки продуктами и бутылками, которые позднее реализует человек, пользующийся, по всем признакам, расположением его супруги (Чиаурели). Живет семья (есть еще теща и красавица-дочка) крайне бедно, другого занятия у главы семьи нет, и вот Ширвиндту приходит в голову блестящая мысль — за несколько грошей он нанимает столетнего старика и создает благотворительный фонд для оказания материальной помощи собственной семье. Далее счастливый случай позволяет полковнику таким образом устроить свои дела, что, вряд ли, он мог об этом мечтать даже в самом сладком сне.
Качество: SATRip
Формат: AVI
Видео кодек: XviD
Аудио кодек: АС3
Видео: 720x544 (1.32:1), 25 fps, XviD build 73 ~1886 kbps avg, 0.19 bit/pixel
Аудио: 48 kHz, AC3 Dolby Digital, 3/2 (L,C,R,l,r) + LFE ch, ~448.00 kbps avg

Медиаинфо

General
Complete name : E:\004 Мои раздачи\Миллион в брачной корзине 1,46\million_v_brachnoi_korzine_1.46_by_bm11.avi
Format : AVI
Format/Info : Audio Video Interleave
File size : 1.46 GiB
Duration : 1h 28mn
Overall bit rate : 2 344 Kbps
Director : bm11
Writing application : VirtualDubMod 1.5.10.3 | www.virtualdub-fr.org || (build 2550/release)
Video
ID : 0
Format : MPEG-4 Visual
Format profile : Advanced Simple@L5
Format settings, BVOP : 1
Format settings, QPel : No
Format settings, GMC : No warppoints
Format settings, Matrix : Custom
Codec ID : XVID
Codec ID/Hint : XviD
Duration : 1h 28mn
Bit rate : 1 887 Kbps
Width : 720 pixels
Height : 544 pixels
Display aspect ratio : 4:3
Frame rate : 25.000 fps
Color space : YUV
Chroma subsampling : 4:2:0
Bit depth : 8 bits
Scan type : Progressive
Compression mode : Lossy
Bits/(Pixel*Frame) : 0.193
Stream size : 1.17 GiB (80%)
Writing library : XviD 73
Audio
ID : 1
Format : AC-3
Format/Info : Audio Coding 3
Mode extension : CM (complete main)
Format settings, Endianness : Big
Codec ID : 2000
Duration : 1h 28mn
Bit rate mode : Constant
Bit rate : 448 Kbps
Channel(s) : 6 channels
Channel positions : Front: L C R, Side: L R, LFE
Sampling rate : 48.0 KHz
Frame rate : 31.250 fps (1536 spf)
Compression mode : Lossy
Stream size : 285 MiB (19%)
Alignment : Split accross interleaves
Interleave, duration : 40 ms (1.00 video frame)
Interleave, preload duratio : 500 ms
[cybertorrent.ru].t408.torrent 
Торрент: Зарегистрирован [ 2019-03-18 10:04 ] · 159A68FDB947C546B13CCDB2F7F6586114247B29

Скачать .torrent

Скачать

15 KB

Статус: проверено
Скачан: 0 раз
Размер: 1,46 GB
terms.php
[Профиль] [ЛС]
Показать сообщения:    
Ответить на тему

Текущее время: 16-Июн 18:31

Часовой пояс: UTC ± 0



Вы не можете начинать темы
Вы не можете отвечать на сообщения
Вы не можете редактировать свои сообщения
Вы не можете удалять свои сообщения
Вы не можете голосовать в опросах
Вы не можете прикреплять файлы к сообщениям
Вы можете скачивать файлы